<?xml version="1.0" standalone="no"?>
<!DOCTYPE svg PUBLIC "-//W3C//DTD SVG 1.1//EN" "http://www.w3.org/Graphics/SVG/1.1/DTD/svg11.dtd" >
<svg xmlns="http://www.w3.org/2000/svg" xmlns:xlink="http://www.w3.org/1999/xlink" version="1.1">
<metadata>
Created by FontForge 20170731 at Wed Jan  3 22:19:15 2007
 By Aleksey,,,
Copr.1993, Greg Thompson. Agenda is a Trademark of Greg Thompson. Produced by The Font Bureau, Inc.
</metadata>
<defs>
<font id="Agenda-BoldExtraCondensed" horiz-adv-x="300" >
  <font-face 
    font-family="Agenda"
    font-weight="700"
    font-stretch="normal"
    units-per-em="1000"
    panose-1="2 0 8 6 4 0 0 2 0 4"
    ascent="800"
    descent="-200"
    x-height="453"
    cap-height="638"
    bbox="-53 -208 715 885"
    underline-thickness="50"
    underline-position="-150"
    unicode-range="U+0020-FB02"
  />
<missing-glyph horiz-adv-x="500" 
 />
    <glyph glyph-name="fi" unicode="fi" horiz-adv-x="413" 
d="M258 0v354h-88v-354h-115v354h-45v99h45v16q0 96 45.5 148.5t128.5 52.5q25 0 43.5 -5t28.5 -13l-5 -100q-8 7 -21 12t-30 5q-40 0 -57.5 -24.5t-17.5 -68.5v-23h204v-453h-116z" />
    <glyph glyph-name="fl" unicode="fl" horiz-adv-x="437" 
d="M382 -13q-21 4 -41 15t-35.5 29.5t-24.5 43.5t-9 57v432q-4 4 -12 4.5t-17 0.5q-37 0 -55 -27t-18 -70v-19h53l-6 -99h-47v-354h-115v354h-45v99h45v11q0 94 50 150t146 56q45 0 80 -13.5t57 -31.5v-485q0 -54 39 -68z" />
    <glyph glyph-name=".notdef" horiz-adv-x="500" 
 />
    <glyph glyph-name=".null" horiz-adv-x="0" 
 />
    <glyph glyph-name="nonmarkingreturn" horiz-adv-x="162" 
 />
    <glyph glyph-name="space" unicode=" " horiz-adv-x="162" 
 />
    <glyph glyph-name="exclam" unicode="!" horiz-adv-x="196" 
d="M165 68q0 -9 -7 -22.5t-17.5 -25.5t-22 -20.5t-19.5 -8.5t-19 8.5t-21 20.5t-17 25.5t-7 22.5t7 22t17 25t21 20.5t19 8.5t19.5 -8.5t22 -20.5t17.5 -25t7 -22zM147 184l-95 22l-13 447h121z" />
    <glyph glyph-name="quotedbl" unicode="&#x22;" horiz-adv-x="287" 
d="M101 406h-58l-16 257h92zM243 406h-57l-18 257h92z" />
    <glyph glyph-name="numbersign" unicode="#" horiz-adv-x="341" 
d="M152 372l-13 -106h50l14 106h-51zM269 372l-13 -106h42v-63h-55l-28 -203h-66l28 203h-50l-28 -203h-67l27 203h-37v63h51l13 106h-43v63h54l29 203h66l-27 -203h49l29 203h67l-29 -203h39v-63h-51z" />
    <glyph glyph-name="dollar" unicode="$" horiz-adv-x="307" 
d="M286 165q0 -67 -25.5 -110.5t-75.5 -57.5v-87h-62v82q-31 2 -54 12.5t-40 25.5l6 108q13 -15 33.5 -27t48.5 -12q26 0 39 16.5t13 42.5q0 30 -14 63t-40 65q-42 51 -66 98.5t-24 102.5q0 60 25.5 101.5t72.5 53.5v83h62v-79q25 -3 42.5 -10t29.5 -15l-6 -109
q-11 11 -30.5 20t-40.5 9q-19 0 -30 -13t-11 -35q0 -25 11.5 -50t36.5 -57q48 -60 73.5 -113t25.5 -108z" />
    <glyph glyph-name="percent" unicode="%" horiz-adv-x="496" 
d="M400 135q0 35 -8 56t-19 21t-19 -21t-8 -56t8 -56.5t19 -21.5t19 21.5t8 56.5zM149 504q0 35 -7.5 56.5t-18.5 21.5t-19 -21.5t-8 -56.5q0 -34 8 -56t19 -22t18.5 22t7.5 56zM476 135q0 -64 -28 -104t-75 -40t-75.5 40t-28.5 104q0 63 28.5 102.5t75.5 39.5t75 -39.5
t28 -102.5zM127 -12l-56 28l297 634l55 -28zM226 504q0 -63 -28 -103t-75 -40t-75 40t-28 103t28 103t75 40t75 -40t28 -103z" />
    <glyph glyph-name="ampersand" unicode="&#x26;" horiz-adv-x="427" 
d="M156 232q-31 -31 -31 -81q0 -28 14.5 -43.5t32.5 -15.5q25 0 56 31zM207 491q0 30 -11 47.5t-25 17.5t-23.5 -17t-9.5 -46q0 -16 8.5 -39t22.5 -46q18 20 28 42t10 41zM308 0l-23 35q-25 -20 -54.5 -31.5t-64.5 -11.5t-62.5 12.5t-46 35t-28.5 52.5t-10 64q0 58 20 98
t52 76q-26 43 -40.5 84t-14.5 80q0 37 11.5 65.5t30.5 48t43 29.5t49 10q26 0 51 -10t44.5 -30t31.5 -49.5t12 -67.5q0 -52 -24 -95t-55 -80l61 -94q25 53 38 114l73 -84q-15 -70 -47 -129l79 -122h-126z" />
    <glyph glyph-name="quotesingle" unicode="'" horiz-adv-x="145" 
d="M101 406h-58l-16 257h92z" />
    <glyph glyph-name="parenleft" unicode="(" horiz-adv-x="239" 
d="M228 661q-40 -93 -61 -203.5t-21 -225.5q0 -123 19.5 -227t60.5 -207l-117 26q-19 49 -34 97t-25.5 98.5t-15.5 106t-5 119.5q0 131 21.5 237.5t59.5 202.5z" />
    <glyph glyph-name="parenright" unicode=")" horiz-adv-x="239" 
d="M211 231q0 -130 -21.5 -236.5t-60.5 -202.5l-117 24q38 92 60 202.5t22 225.5q0 123 -20 227t-60 208l117 -27q19 -48 34 -96t25 -99t15.5 -106.5t5.5 -119.5z" />
    <glyph glyph-name="asterisk" unicode="*" horiz-adv-x="331" 
d="M222 442l61 -112l-58 -63l-59 132l-50 -118l-75 36l71 125l-91 36l12 83l98 -55l-6 140l82 19l-6 -156l84 49l42 -74z" />
    <glyph glyph-name="plus" unicode="+" horiz-adv-x="305" 
d="M200 231v-115h-96v115h-80v90h80v116h96v-116h80v-90h-80z" />
    <glyph glyph-name="comma" unicode="," horiz-adv-x="174" 
d="M152 68q0 -19 -8 -45t-22 -53t-32 -53.5t-38 -46.5l-39 6q23 28 39 62.5t20 64.5q-7 2 -15.5 9t-16 17t-13 20.5t-5.5 18.5q0 10 7 23t17.5 25t22 20t19.5 8q7 0 18 -8t21 -19.5t17.5 -24.5t7.5 -24z" />
    <glyph glyph-name="hyphen" unicode="-" horiz-adv-x="223" 
d="M24 231v90h175v-90h-175z" />
    <glyph glyph-name="hyphen" unicode="&#xad;" horiz-adv-x="223" 
d="M24 231v90h175v-90h-175z" />
    <glyph glyph-name="period" unicode="." horiz-adv-x="174" 
d="M152 68q0 -9 -7 -22.5t-17 -25.5t-21 -20.5t-19 -8.5t-19.5 8.5t-22 20.5t-17.5 25.5t-7 22.5t7 22t17.5 25t22 20.5t19.5 8.5t19 -8.5t21 -20.5t17 -25t7 -22z" />
    <glyph glyph-name="slash" unicode="/" horiz-adv-x="393" 
d="M86 -17l-74 42l296 633l73 -42z" />
    <glyph glyph-name="zero" unicode="0" horiz-adv-x="401" 
d="M256 319q0 50 -4 91.5t-11.5 70.5t-18 45t-22.5 16t-22 -16t-17.5 -45.5t-11.5 -70.5t-4 -91t4 -91t11.5 -70t17.5 -45t22 -16t22.5 16t18 45t11.5 70t4 91zM375 319q0 -156 -46 -242t-129 -86q-84 0 -129.5 86t-45.5 242t45.5 242t129.5 86q83 0 129 -86t46 -242z" />
    <glyph glyph-name="one" unicode="1" horiz-adv-x="233" 
d="M76 0v531l-64 -7l6 106l173 16v-646h-115z" />
    <glyph glyph-name="two" unicode="2" horiz-adv-x="313" 
d="M16 0v32q30 49 56 105t46 110t31.5 102.5t11.5 82.5q0 59 -17 86t-43 27q-22 0 -38.5 -11t-28.5 -25l-6 103q14 14 36.5 24.5t54.5 10.5q33 0 62 -12t50 -37.5t33 -64t12 -91.5q0 -37 -9 -82t-23 -91t-31.5 -90t-35.5 -79h120v-100h-281z" />
    <glyph glyph-name="three" unicode="3" horiz-adv-x="288" 
d="M268 195q0 -103 -45.5 -153.5t-123.5 -50.5q-23 0 -42.5 7t-32.5 17l-6 107q11 -12 27.5 -20.5t37.5 -8.5q26 0 46 24.5t20 78.5q0 20 -5 38t-13.5 32t-19.5 22t-22 8q-6 0 -11 -1.5t-10 -3.5l-6 96q26 11 43 34t17 55q0 30 -11.5 50.5t-33.5 20.5q-16 0 -26.5 -6
t-20.5 -15l-6 99q14 9 33 15.5t45 6.5q30 0 55 -11.5t42.5 -32t27.5 -49t10 -62.5q0 -45 -15.5 -77.5t-36.5 -47.5q15 -6 30 -20t26.5 -35.5t19 -50.5t7.5 -66z" />
    <glyph glyph-name="four" unicode="4" horiz-adv-x="350" 
d="M187 454q-6 -17 -12.5 -35t-13.5 -31l-58 -129h82v129q0 15 1 32.5t3 32.5zM291 163v-163h-106v163h-168l-11 101l175 374h110v-379h41v-96h-41z" />
    <glyph glyph-name="five" unicode="5" horiz-adv-x="304" 
d="M282 195q0 -95 -42 -149.5t-123 -54.5q-25 0 -47.5 6.5t-34.5 16.5l-6 110q12 -14 28.5 -22.5t37.5 -8.5q29 0 48 28t19 74q0 47 -19 76t-49 29q-18 0 -31 -5t-24 -13l6 356h208l-5 -100h-90l-4 -146h11q22 0 43 -14.5t37.5 -41t26.5 -62.5t10 -79z" />
    <glyph glyph-name="six" unicode="6" horiz-adv-x="365" 
d="M227 197q0 51 -13 81.5t-33 30.5q-24 0 -34 -19q-2 -11 -3.5 -32.5t-1.5 -47.5q0 -57 13.5 -87t31.5 -30q17 0 28.5 28.5t11.5 75.5zM343 201q0 -47 -10.5 -85.5t-31 -66.5t-49.5 -43t-66 -15q-74 0 -117.5 60.5t-43.5 168.5q0 65 13 126.5t36 117t55 104t70 85.5
l114 -34q-22 -19 -43.5 -44.5t-40 -55t-33 -59.5t-23.5 -58q11 8 26 8q25 0 50.5 -13.5t46.5 -40t34 -65.5t13 -90z" />
    <glyph glyph-name="seven" unicode="7" horiz-adv-x="318" 
d="M163 0h-118l126 538h-157v100h297z" />
    <glyph glyph-name="eight" unicode="8" horiz-adv-x="373" 
d="M232 178q0 42 -17.5 66.5t-33.5 34.5q-14 -11 -29.5 -35t-15.5 -66t14.5 -66t33.5 -24t33.5 24t14.5 66zM227 479q0 35 -11.5 54t-28.5 19q-16 0 -27 -19t-11 -54q0 -33 11.5 -52.5t28.5 -33.5q17 13 27.5 33t10.5 53zM348 178q0 -87 -43 -137t-118 -50t-118.5 50
t-43.5 137q0 32 7 58t17.5 46t22.5 34.5t23 22.5q-23 22 -40 59.5t-17 84.5q0 74 40 119t107 45q68 0 109.5 -45.5t41.5 -121.5q0 -22 -5.5 -43.5t-13.5 -40.5t-18.5 -34t-21.5 -24q11 -8 23.5 -22t23 -34.5t17.5 -46t7 -57.5z" />
    <glyph glyph-name="nine" unicode="9" horiz-adv-x="365" 
d="M223 429q0 56 -13.5 86t-32.5 30q-17 0 -28.5 -28t-11.5 -76q0 -51 13.5 -81.5t32.5 -30.5q26 0 35 19q2 11 3.5 33t1.5 48zM340 418q0 -64 -13 -126t-36 -117.5t-55 -103.5t-70 -85l-115 34q23 18 44 44t40 55t33.5 59.5t23.5 58.5q-10 -9 -26 -9q-25 0 -51 14
t-46.5 40.5t-33.5 65.5t-13 89q0 47 10.5 85.5t30.5 66.5t49.5 43t66.5 15q74 0 117.5 -60t43.5 -169z" />
    <glyph glyph-name="colon" unicode=":" horiz-adv-x="174" 
d="M152 68q0 -9 -7 -22.5t-17 -25.5t-21 -20.5t-19 -8.5t-19.5 8.5t-22 20.5t-17.5 25.5t-7 22.5t7 22t17.5 25t22 20.5t19.5 8.5t19 -8.5t21 -20.5t17 -25t7 -22zM152 385q0 -9 -7 -22t-17 -25t-21 -20.5t-19 -8.5t-19.5 8.5t-22 20.5t-17.5 25t-7 22t7 22.5t17.5 25.5
t22 20.5t19.5 8.5t19 -8.5t21 -20.5t17 -25.5t7 -22.5z" />
    <glyph glyph-name="semicolon" unicode=";" horiz-adv-x="174" 
d="M152 68q0 -19 -8 -45t-22 -53t-32 -53.5t-38 -46.5l-39 6q23 28 39 62.5t20 64.5q-7 2 -15.5 9t-16 17t-13 20.5t-5.5 18.5q0 10 7 23t17.5 25t22 20t19.5 8q7 0 18 -8t21 -19.5t17.5 -24.5t7.5 -24zM152 385q0 -9 -7 -22t-17 -25t-21 -20.5t-19 -8.5t-19.5 8.5t-22 20.5
t-17.5 25t-7 22t7 22.5t17.5 25.5t22 20.5t19.5 8.5t19 -8.5t21 -20.5t17 -25.5t7 -22.5z" />
    <glyph glyph-name="semicolon" unicode="&#x37e;" horiz-adv-x="174" 
d="M152 68q0 -19 -8 -45t-22 -53t-32 -53.5t-38 -46.5l-39 6q23 28 39 62.5t20 64.5q-7 2 -15.5 9t-16 17t-13 20.5t-5.5 18.5q0 10 7 23t17.5 25t22 20t19.5 8q7 0 18 -8t21 -19.5t17.5 -24.5t7.5 -24zM152 385q0 -9 -7 -22t-17 -25t-21 -20.5t-19 -8.5t-19.5 8.5t-22 20.5
t-17.5 25t-7 22t7 22.5t17.5 25.5t22 20.5t19.5 8.5t19 -8.5t21 -20.5t17 -25.5t7 -22.5z" />
    <glyph glyph-name="less" unicode="&#x3c;" horiz-adv-x="238" 
d="M148 111l-130 166l129 167l58 -65l-76 -102l76 -102z" />
    <glyph glyph-name="equal" unicode="=" horiz-adv-x="305" 
d="M24 144v90h256v-90h-256zM24 319v89h256v-89h-256z" />
    <glyph glyph-name="greater" unicode="&#x3e;" horiz-adv-x="238" 
d="M91 111l-58 64l76 102l-76 102l59 65l128 -166z" />
    <glyph glyph-name="question" unicode="?" horiz-adv-x="288" 
d="M196 68q0 -9 -7 -22.5t-17 -25.5t-21.5 -20.5t-19.5 -8.5q-9 0 -20.5 8.5t-22 20.5t-17.5 25.5t-7 22.5t7 22t17.5 25t22 20.5t20.5 8.5q8 0 19.5 -8.5t21.5 -20.5t17 -25t7 -22zM262 497q0 -49 -15.5 -88t-45.5 -87q-16 -27 -23 -53.5t-7 -50.5q0 -20 3 -40l-99 23
q-2 11 -3.5 23t-1.5 26q0 38 9.5 69.5t32.5 69.5q16 28 24 50t8 50q0 32 -13.5 50.5t-36.5 18.5t-41.5 -10.5t-29.5 -27.5l-6 108q13 13 35.5 23.5t56.5 10.5q68 0 110.5 -44t42.5 -121z" />
    <glyph glyph-name="at" unicode="@" horiz-adv-x="502" 
d="M294 425q-3 2 -5 3t-6 1q-10 0 -21 -14t-20 -37.5t-14.5 -53.5t-5.5 -62q0 -27 6 -43t16 -16q14 0 23 19t13 54zM478 384q0 -45 -7.5 -89.5t-23 -80t-39 -57t-55.5 -21.5q-17 0 -32 11t-19 35q-13 -23 -31 -35t-44 -12q-33 0 -56.5 35t-23.5 92q0 56 12.5 99.5t33 74.5
t48 47t57.5 16q24 0 42.5 -11t26.5 -25l-17 -208q-1 -9 -1 -15.5v-11.5q0 -23 12 -23q9 0 18 14t16 39t11.5 58t4.5 71q0 91 -34 144.5t-94 53.5q-36 0 -70.5 -24.5t-61.5 -67.5t-43.5 -101.5t-16.5 -127.5q0 -54 10 -94t27 -65.5t39 -38t47 -12.5q22 0 39.5 8.5t31.5 23.5
l-9 -72q-11 -11 -29.5 -17t-41.5 -6q-42 0 -75.5 19t-57 54t-35.5 85.5t-12 113.5q0 80 20 150t55 122t83.5 82t105.5 30q46 0 81 -19.5t59 -54.5t36.5 -83t12.5 -106z" />
    <glyph glyph-name="A" unicode="A" horiz-adv-x="399" 
d="M207 362q-2 14 -5 29t-5 32h-2q-2 -17 -5 -32t-5 -29l-23 -123h68zM276 0l-28 147h-104l-28 -147h-111l146 640h98l146 -640h-119z" />
    <glyph glyph-name="B" unicode="B" horiz-adv-x="375" 
d="M236 195q0 51 -18.5 77t-40.5 26h-31v-204h31q22 0 40.5 25t18.5 76zM211 468q0 40 -14.5 59.5t-29.5 19.5h-21v-156h21q15 0 29.5 19t14.5 58zM355 194q0 -45 -12.5 -81t-34.5 -61t-53 -38.5t-67 -13.5h-151v638h140q30 0 56.5 -11t46 -32t31 -52t11.5 -71
q0 -38 -13 -72t-33 -45q13 -4 27 -17.5t25.5 -34t19 -48t7.5 -61.5z" />
    <glyph glyph-name="C" unicode="C" horiz-adv-x="354" 
d="M330 505q-10 11 -28.5 21.5t-47.5 10.5q-25 0 -44.5 -16.5t-33 -45.5t-20.5 -69t-7 -87t7 -86.5t20.5 -68.5t33.5 -45.5t47 -16.5t47 9.5t31 24.5l-7 -118q-14 -11 -37.5 -19t-55.5 -8q-46 0 -84 22t-66 64t-43.5 103t-15.5 139t15.5 139t43.5 103t66 64t84 22
q35 0 61 -10t40 -21z" />
    <glyph glyph-name="D" unicode="D" horiz-adv-x="427" 
d="M277 319q0 56 -8 96.5t-22 66.5t-32.5 38.5t-38.5 12.5h-21v-428h21q41 0 71 51t30 163zM401 319q0 -81 -17 -141t-46 -99.5t-68.5 -59t-83.5 -19.5h-149v638h149q44 0 83.5 -19.5t68.5 -59t46 -99.5t17 -141z" />
    <glyph glyph-name="E" unicode="E" horiz-adv-x="313" 
d="M37 0v638h251v-103h-131v-163h107v-104h-107v-165h146v-103h-266z" />
    <glyph glyph-name="F" unicode="F" horiz-adv-x="307" 
d="M160 535v-163h112v-104h-112v-268h-121v638h260v-103h-139z" />
    <glyph glyph-name="G" unicode="G" horiz-adv-x="408" 
d="M379 50q-21 -26 -56 -42.5t-89 -16.5q-45 0 -83 22t-66 64t-43.5 103t-15.5 139t16 139t44 103t67 64t84 22q39 0 69.5 -12.5t45.5 -29.5l-8 -113q-13 17 -36 31t-53 14q-26 0 -46.5 -16.5t-34.5 -45.5t-21.5 -69t-7.5 -88q0 -47 7 -87.5t19.5 -70t29.5 -46t37 -16.5
q24 0 36 11v133h-54v98h159v-290z" />
    <glyph glyph-name="H" unicode="H" horiz-adv-x="435" 
d="M278 0v268h-121v-268h-120v638h120v-265h121v265h120v-638h-120z" />
    <glyph glyph-name="I" unicode="I" horiz-adv-x="203" 
d="M41 0v638h121v-638h-121z" />
    <glyph glyph-name="J" unicode="J" horiz-adv-x="219" 
d="M178 110q0 -54 -11.5 -93t-31.5 -65.5t-47.5 -43.5t-59.5 -28l-53 91q21 7 36.5 18t25.5 28.5t14.5 43t4.5 61.5v516h122v-528z" />
    <glyph glyph-name="K" unicode="K" horiz-adv-x="392" 
d="M261 0l-106 290v-290h-118v638h118v-298l103 298h122l-118 -312l129 -326h-130z" />
    <glyph glyph-name="L" unicode="L" horiz-adv-x="315" 
d="M37 0v638h120v-533h152v-105h-272z" />
    <glyph glyph-name="M" unicode="M" horiz-adv-x="568" 
d="M430 0l-11 215q-2 26 -2.5 53t0.5 56h-2q-6 -29 -13.5 -56.5t-15.5 -53.5l-65 -215h-71l-66 215q-7 23 -15 52t-14 58h-2q2 -32 1 -58t-3 -51l-13 -215h-111l37 638h95l87 -286q10 -33 20 -71t18 -73h2q8 35 17 72t20 72l87 286h94l38 -638h-112z" />
    <glyph glyph-name="N" unicode="N" horiz-adv-x="450" 
d="M338 -2l-129 241q-14 27 -30.5 60.5t-28.5 62.5h-2q2 -32 2.5 -63.5t0.5 -57.5v-241h-114v638h91l117 -231q13 -25 28 -57.5t26 -58.5l2 1q-2 27 -2.5 58.5t-0.5 56.5v231h115v-640h-75z" />
    <glyph glyph-name="O" unicode="O" horiz-adv-x="471" 
d="M321 319q0 48 -7 87.5t-18.5 68t-27 44.5t-33.5 16t-33.5 -16t-27 -44.5t-18.5 -68t-7 -87.5q0 -47 7 -86.5t18.5 -68t27 -44.5t33.5 -16t33.5 16t27 44.5t18.5 68t7 86.5zM445 319q0 -74 -15 -134.5t-42.5 -103.5t-66 -66.5t-86.5 -23.5t-86.5 23.5t-66 66.5
t-42.5 103.5t-15 134.5t15 134.5t42.5 103.5t66 66.5t86.5 23.5t86.5 -23.5t66 -66.5t42.5 -103.5t15 -134.5z" />
    <glyph glyph-name="P" unicode="P" horiz-adv-x="360" 
d="M230 454q0 42 -15.5 63.5t-32.5 21.5h-27v-171h27q17 0 32.5 22t15.5 64zM348 454q0 -41 -12 -75.5t-33 -59t-49 -38.5t-60 -14h-39v-267h-118v638h157q32 0 60 -13.5t49 -38t33 -58t12 -74.5z" />
    <glyph glyph-name="Q" unicode="Q" horiz-adv-x="471" 
d="M321 319q0 47 -7 87t-18.5 68.5t-27 44.5t-32.5 16q-18 0 -33.5 -16t-27.5 -44.5t-19 -68.5t-7 -87t7 -86.5t19 -68t27.5 -44.5t33.5 -16q17 0 32.5 16t27 44.5t18.5 68t7 86.5zM416 -111q-5 -2 -9.5 -2h-9.5q-21 0 -45.5 7.5t-52.5 29.5q-27 21 -55 41t-47 31
q-38 9 -70 35.5t-54.5 68.5t-35 97.5t-12.5 121.5q0 74 15 134.5t42.5 103.5t66.5 66.5t87 23.5q47 0 85.5 -23.5t66 -66.5t42.5 -103.5t15 -134.5q0 -106 -30.5 -183t-81.5 -109v-2q8 -3 17.5 -8t26.5 -17q19 -13 34.5 -17.5t29.5 -4.5q8 0 15 0.5t15 3.5z" />
    <glyph glyph-name="R" unicode="R" horiz-adv-x="398" 
d="M231 454q0 42 -15.5 63.5t-32.5 21.5h-28v-171h28q17 0 32.5 22t15.5 64zM279 0l-101 267h-23v-267h-118v638h158q32 0 60 -13.5t49 -38t33 -58t12 -74.5q0 -50 -18 -89t-44 -59l119 -306h-127z" />
    <glyph glyph-name="S" unicode="S" horiz-adv-x="310" 
d="M291 167q0 -83 -40.5 -129.5t-118.5 -46.5q-35 0 -62 11t-44 28l-7 124q18 -23 42.5 -38t53.5 -15q27 0 40.5 15.5t13.5 41.5q0 30 -15 62t-42 66q-39 49 -62.5 97.5t-23.5 102.5q0 72 38.5 116.5t106.5 44.5q35 0 57 -8.5t33 -18.5l-6 -110q-11 11 -28.5 20t-37.5 9
q-22 0 -33.5 -12.5t-11.5 -33.5q0 -28 13 -52.5t39 -56.5q45 -54 70 -107.5t25 -109.5z" />
    <glyph glyph-name="T" unicode="T" horiz-adv-x="350" 
d="M236 536v-536h-121v536h-110v102h340v-102h-109z" />
    <glyph glyph-name="U" unicode="U" horiz-adv-x="433" 
d="M396 166q0 -42 -13.5 -74.5t-37.5 -55t-57 -34t-72 -11.5t-71.5 11.5t-56.5 34t-37.5 55t-13.5 74.5v472h120v-465q0 -37 16.5 -56t44.5 -19q27 0 43.5 19t16.5 56v465h118v-472z" />
    <glyph glyph-name="V" unicode="V" horiz-adv-x="386" 
d="M242 -1h-99l-143 639h121l53 -256q5 -28 11 -61.5t10 -65.5h2q5 32 10 65.5t11 61.5l53 256h113z" />
    <glyph glyph-name="W" unicode="W" horiz-adv-x="614" 
d="M476 -1h-90l-55 262q-6 26 -12 60t-11 72h-2q-5 -38 -11.5 -71.5t-11.5 -60.5l-56 -262h-89l-136 639h114l49 -257q5 -26 10.5 -60.5t9.5 -66.5h2q4 32 9 66.5t10 60.5l49 257h110l49 -256q5 -29 9.5 -63t9.5 -65h2q4 31 9.5 64.5t10.5 62.5l49 257h107z" />
    <glyph glyph-name="X" unicode="X" horiz-adv-x="389" 
d="M263 0l-48 135q-5 15 -11 34t-11 36h-2q-5 -17 -10.5 -35.5t-11.5 -34.5l-49 -135h-115l122 328l-114 310h120l44 -123q5 -14 10 -30.5t9 -30.5h2q5 14 10 30.5t10 30.5l43 123h115l-113 -309l120 -329h-120z" />
    <glyph glyph-name="Y" unicode="Y" horiz-adv-x="399" 
d="M259 280v-280h-119v277l-139 361h122l54 -141q6 -15 12.5 -34.5t11.5 -36.5h2q5 17 12 36t13 35l54 141h116z" />
    <glyph glyph-name="Z" unicode="Z" horiz-adv-x="326" 
d="M11 0v30l98 335q11 38 25.5 84t26.5 83l-2 1h-131v105h277v-30l-99 -336q-11 -39 -25.5 -85t-25.5 -81l2 -1h154v-105h-300z" />
    <glyph glyph-name="bracketleft" unicode="[" horiz-adv-x="259" 
d="M35 -188v849h205v-100h-90v-650h90v-99h-205z" />
    <glyph glyph-name="backslash" unicode="\" horiz-adv-x="395" 
d="M308 -17l-295 633l73 42l296 -633z" />
    <glyph glyph-name="bracketright" unicode="]" horiz-adv-x="259" 
d="M19 -188v99h90v650h-90v100h205v-849h-205z" />
    <glyph glyph-name="asciicircum" unicode="^" horiz-adv-x="266" 
d="M202 497q-19 11 -35.5 26t-33.5 40q-16 -24 -33 -39.5t-36 -26.5l-45 51q31 19 62 55t52 81q22 -45 53 -81t62 -55z" />
    <glyph glyph-name="underscore" unicode="_" horiz-adv-x="374" 
d="M0 -196v90h375v-90h-375z" />
    <glyph glyph-name="grave" unicode="`" 
d="M197 484q-36 14 -67 31t-62 52l19 89q29 -45 72 -76t83 -46z" />
    <glyph glyph-name="a" unicode="a" horiz-adv-x="341" 
d="M183 198l-25 -3q-17 -2 -28 -19.5t-11 -47.5q0 -20 8.5 -33t20.5 -13q15 0 25 13.5t10 36.5v66zM291 -9q-23 1 -43 13.5t-29 32.5q-14 -22 -36 -34t-48 -12q-48 0 -82.5 34t-34.5 103t32 108.5t91 45.5l41 4v22q0 27 -13.5 42t-39.5 15q-24 0 -45.5 -11t-32.5 -23l-6 98
q14 14 41 23.5t57 9.5q69 0 110.5 -43t41.5 -128v-154q0 -28 11 -42t28 -19z" />
    <glyph glyph-name="b" unicode="b" horiz-adv-x="368" 
d="M231 227q0 59 -16.5 95.5t-39.5 36.5q-17 0 -27 -10v-247q10 -8 24 -8q29 0 44 36.5t15 96.5zM347 229q0 -113 -48.5 -175.5t-129.5 -62.5q-45 0 -79.5 13.5t-54.5 33.5v625h113v-210q14 9 36 9q34 0 64 -17.5t52 -48t34.5 -73.5t12.5 -94z" />
    <glyph glyph-name="c" unicode="c" horiz-adv-x="292" 
d="M268 333q-11 11 -25.5 18t-33.5 7q-32 0 -51.5 -36t-19.5 -97q0 -60 20 -95.5t54 -35.5q17 0 32.5 7t27.5 18l-6 -107q-12 -9 -32 -15t-47 -6q-36 0 -66.5 16t-53 46.5t-35 74t-12.5 98.5q0 56 12.5 99.5t35 74t53 46.5t66.5 16q32 0 53.5 -8.5t33.5 -17.5z" />
    <glyph glyph-name="d" unicode="d" horiz-adv-x="377" 
d="M228 344q-13 15 -36 15q-25 0 -40 -36.5t-15 -95.5t15 -96.5t40 -37.5q11 0 20.5 5t15.5 13v233zM253 0l-2 31q-9 -16 -29.5 -27.5t-51.5 -11.5q-28 0 -55 15.5t-48 45.5t-34 73t-13 98q0 53 11.5 96.5t32.5 75t51 49t67 17.5q14 0 26 -3.5t20 -8.5v213h114v-663h-89z
" />
    <glyph glyph-name="e" unicode="e" horiz-adv-x="338" 
d="M215 295q0 31 -9.5 55t-26.5 24q-18 0 -31.5 -28t-15.5 -67h82q1 3 1 8v8zM320 288q0 -9 -1 -24.5t-3 -23.5l-47 -47h-135q2 -22 8 -41.5t16.5 -34.5t25.5 -23.5t34 -8.5q25 0 45 9.5t34 24.5l-6 -102q-13 -11 -36 -18.5t-55 -7.5q-40 0 -73 16.5t-57 47.5t-37 75t-13 99
q0 53 12 95.5t33 73.5t50.5 47.5t64.5 16.5q33 0 59 -14t44 -38t27.5 -55.5t9.5 -66.5z" />
    <glyph glyph-name="f" unicode="f" horiz-adv-x="255" 
d="M267 555q-8 6 -17 10t-21 4q-29 0 -44 -23.5t-15 -62.5v-30h71l-5 -99h-66v-354h-115v354h-45v99h45v18q0 99 42 149t114 50q38 0 61 -15z" />
    <glyph glyph-name="g" unicode="g" horiz-adv-x="333" 
d="M210 -51q0 27 -8 45.5t-22 22.5l-25 7q-14 -5 -23 -21t-9 -51q0 -30 11 -50.5t32 -20.5t32.5 19.5t11.5 48.5zM195 307q0 35 -10 54.5t-24 19.5t-23 -19.5t-9 -54.5q0 -33 9 -53t23 -20t24 20t10 53zM318 -46q0 -33 -10 -62t-29.5 -50t-47.5 -33t-64 -12t-64.5 12.5
t-48 34t-29.5 50.5t-10 63q0 50 19.5 80.5t42.5 40.5l-38 48q2 17 12 33t24 24q-20 17 -34 46t-14 77q0 34 8.5 62.5t25.5 49.5t42.5 32.5t58.5 11.5q14 0 27 -2.5t23 -6.5q23 -9 48 -9q17 0 30 4.5t21 10.5l5 -95q-8 -10 -27 -10q2 -7 4.5 -19t2.5 -28q0 -65 -30.5 -106
t-81.5 -46q-21 -2 -21 -19q0 -5 3.5 -11.5t11.5 -8.5l32 -10q51 -16 79.5 -57t28.5 -95z" />
    <glyph glyph-name="h" unicode="h" horiz-adv-x="370" 
d="M224 0v301q0 26 -9.5 41.5t-26.5 15.5t-28 -16t-11 -44v-298h-114v663h114v-235q12 14 29.5 23.5t44.5 9.5q56 0 86.5 -38t30.5 -101v-322h-116z" />
    <glyph glyph-name="i" unicode="i" horiz-adv-x="193" 
d="M38 0v453h117v-453h-117zM155 584q0 -9 -6.5 -20.5t-15.5 -22t-19 -18t-18 -7.5q-7 0 -17 7.5t-19 18t-15.5 22t-6.5 20.5t6.5 20.5t15.5 22.5t19 18.5t17 7.5q8 0 18 -7.5t19 -18.5t15.5 -22.5t6.5 -20.5z" />
    <glyph glyph-name="j" unicode="j" horiz-adv-x="193" 
d="M154 6q0 -84 -35.5 -134.5t-91.5 -71.5l-48 84q32 13 45.5 43.5t13.5 88.5v437h116v-447zM155 584q0 -9 -6.5 -20.5t-16 -22t-19.5 -18t-17 -7.5t-17.5 7.5t-19.5 18t-15.5 22t-6.5 20.5t6.5 20.5t15.5 22.5t19.5 18.5t17.5 7.5t17 -7.5t19.5 -18.5t16 -22.5t6.5 -20.5z
" />
    <glyph glyph-name="k" unicode="k" horiz-adv-x="359" 
d="M230 0l-81 208v-208h-114v663h114v-421l81 211h117l-87 -220l97 -233h-127z" />
    <glyph glyph-name="l" unicode="l" horiz-adv-x="204" 
d="M145 -14q-21 4 -40 15t-33.5 29.5t-23.5 44t-9 56.5v532h115v-524q0 -54 40 -68z" />
    <glyph glyph-name="m" unicode="m" horiz-adv-x="554" 
d="M407 0v304q0 26 -9.5 40t-25.5 14q-17 0 -27.5 -15t-10.5 -42v-301h-115v304q0 26 -9.5 40t-26.5 14q-16 0 -26.5 -15t-10.5 -42v-301h-115v453h101l3 -39q9 16 29.5 31.5t54.5 15.5q33 0 56 -15t34 -36q11 21 36.5 36t60.5 15q58 0 87.5 -38t29.5 -98v-325h-116z" />
    <glyph glyph-name="n" unicode="n" horiz-adv-x="368" 
d="M221 0v301q0 26 -9.5 41.5t-26.5 15.5t-28 -16t-11 -44v-298h-115v453h101l3 -39q10 19 30.5 33t54.5 14q56 0 86.5 -38t30.5 -101v-322h-116z" />
    <glyph glyph-name="o" unicode="o" horiz-adv-x="372" 
d="M235 227q0 59 -14 96t-34 37q-21 0 -36 -37t-15 -96q0 -60 15 -97t36 -37q20 0 34 37t14 97zM352 227q0 -52 -11.5 -95.5t-33 -75t-52.5 -48.5t-69 -17q-39 0 -69.5 17t-52 48.5t-33 75t-11.5 95.5t11.5 95.5t33 74.5t52 48t69.5 17q38 0 69 -17t52.5 -48t33 -74.5
t11.5 -95.5z" />
    <glyph glyph-name="p" unicode="p" horiz-adv-x="377" 
d="M239 226q0 59 -14.5 96.5t-40.5 37.5q-11 0 -20 -5t-16 -13v-233q7 -7 15.5 -11t20.5 -4q25 0 40 36.5t15 95.5zM356 229q0 -52 -11.5 -96t-32.5 -75.5t-50.5 -49t-66.5 -17.5q-14 0 -26.5 3.5t-20.5 8.5v-194h-113v644h88l3 -31q10 16 29.5 27.5t51.5 11.5
q27 0 54 -15.5t48 -45.5t34 -73t13 -98z" />
    <glyph glyph-name="q" unicode="q" horiz-adv-x="368" 
d="M219 350q-11 9 -27 9q-26 0 -40.5 -36t-14.5 -96t16 -96.5t40 -36.5q15 0 26 10v246zM219 -191v191q-8 -4 -16.5 -6.5t-19.5 -2.5q-37 0 -67 17.5t-51.5 49t-33 75t-11.5 95.5q0 55 12.5 98.5t34.5 73.5t52.5 46t66.5 16q24 0 47 -5.5t40 -13.5l23 23h37v-657h-114z" />
    <glyph glyph-name="r" unicode="r" horiz-adv-x="267" 
d="M254 337q-1 0 -3 0.5t-7 0.5q-42 0 -67.5 -40.5t-25.5 -102.5v-195h-114v453h105l2 -65q23 70 105 70z" />
    <glyph glyph-name="s" unicode="s" horiz-adv-x="264" 
d="M245 130q0 -29 -8.5 -54.5t-25 -44t-41.5 -29.5t-59 -11q-30 0 -53.5 9.5t-35.5 20.5l-7 111q14 -17 36 -30t46 -13q18 0 26.5 10t8.5 23q0 16 -9 32.5t-23 30.5q-35 36 -55 73t-20 73q0 61 34 96t91 35q26 0 45.5 -8t26.5 -15l-5 -97q-8 10 -22.5 16.5t-32.5 6.5
q-12 0 -20 -7.5t-8 -19.5q0 -15 7.5 -27.5t28.5 -35.5q41 -44 58 -76t17 -69z" />
    <glyph glyph-name="t" unicode="t" horiz-adv-x="268" 
d="M253 354h-82v-201q0 -57 39 -57q19 0 31 11l-7 -99q-8 -5 -23.5 -9t-35.5 -4q-55 0 -87.5 38t-32.5 98v223h-46v99h49v81l113 43v-124h87z" />
    <glyph glyph-name="u" unicode="u" horiz-adv-x="368" 
d="M235 0l-3 38q-9 -18 -29.5 -32t-54.5 -14q-57 0 -87 38t-30 101v322h115v-301q0 -26 9.5 -41.5t27.5 -15.5q17 0 27.5 16t10.5 44v298h116v-453h-102z" />
    <glyph glyph-name="v" unicode="v" horiz-adv-x="333" 
d="M209 -1h-85l-117 454h108l38 -161q4 -19 8 -40t7 -41h2q3 20 7 41t9 40l38 161h102z" />
    <glyph glyph-name="w" unicode="w" horiz-adv-x="521" 
d="M402 -1h-80l-42 173q-5 21 -9.5 43.5t-8.5 44.5h-2q-4 -23 -8.5 -45.5t-9.5 -41.5l-42 -174h-79l-112 454h106l36 -161q4 -18 7.5 -39t5.5 -41h2q3 20 6 41t8 39l36 161h94l36 -161q5 -19 8.5 -40t5.5 -40h2q2 19 6 40t8 40l36 161h101z" />
    <glyph glyph-name="x" unicode="x" horiz-adv-x="327" 
d="M204 0l-32 88q-3 10 -6 22t-6 23h-2q-2 -11 -5.5 -23t-7.5 -22l-33 -88h-104l89 228l-84 225h114l27 -75q3 -8 6.5 -18t5.5 -19h2q2 9 5.5 18.5t6.5 18.5l29 75h105l-83 -216l87 -237h-114z" />
    <glyph glyph-name="y" unicode="y" horiz-adv-x="341" 
d="M231 39q-13 -55 -29 -94.5t-35.5 -68t-43 -47t-52.5 -30.5l-47 82q16 7 29.5 17t24.5 26t21 39t20 57l-112 433h109l39 -166q5 -19 9 -39.5t7 -43.5h2q4 22 7.5 42.5t8.5 40.5l40 166h105z" />
    <glyph glyph-name="z" unicode="z" horiz-adv-x="284" 
d="M13 0v22l67 219q8 28 17.5 57.5t17.5 53.5l-1 2h-85v99h226v-22l-66 -223q-9 -27 -18.5 -54.5t-17.5 -52.5l1 -2h109v-99h-250z" />
    <glyph glyph-name="braceleft" unicode="{" horiz-adv-x="273" 
d="M242 -193q-86 0 -130.5 71.5t-44.5 198.5q0 45 -13.5 89t-48.5 74q35 30 48.5 74t13.5 89q0 60 11.5 108.5t33.5 82.5t54.5 52.5t75.5 18.5l20 -97q-24 0 -39.5 -12t-24.5 -33t-12.5 -48.5t-3.5 -58.5q0 -56 -14 -102t-44 -74q30 -28 44 -74.5t14 -101.5q0 -34 3.5 -63
t12.5 -50.5t24.5 -34t39.5 -12.5z" />
    <glyph glyph-name="bar" unicode="|" horiz-adv-x="174" 
d="M43 -191v854h87v-854h-87z" />
    <glyph glyph-name="braceright" unicode="}" horiz-adv-x="273" 
d="M269 240q-35 -30 -49 -74t-14 -89q0 -127 -44.5 -198.5t-130.5 -71.5l-19 97q24 0 39.5 12.5t24 34t12 50.5t3.5 63q0 55 14 101.5t44 74.5q-30 28 -44 74t-14 102q0 31 -3.5 58.5t-12 48.5t-24 33t-39.5 12l19 97q43 0 75.5 -18.5t54.5 -52.5t33.5 -82.5t11.5 -108.5
q0 -45 14 -89t49 -74z" />
    <glyph glyph-name="asciitilde" unicode="~" horiz-adv-x="279" 
d="M238 253q-25 -23 -53 -37t-60 -16l-8 62q-23 -3 -47 -18.5t-44 -33.5l16 82q25 23 52.5 37t59.5 16l8 -62q24 4 48 18.5t44 33.5z" />
    <glyph glyph-name="nonbreakingspace" unicode="&#xa0;" horiz-adv-x="81" 
 />
    <glyph glyph-name="exclamdown" unicode="&#xa1;" horiz-adv-x="196" 
d="M36 -15l13 469l96 -21l11 -448h-120zM162 570q0 -9 -7 -22t-17.5 -25t-22 -20.5t-19.5 -8.5t-19.5 8.5t-21.5 20.5t-17 25t-7 22t7 22.5t17 25.5t21.5 20.5t19.5 8.5t19.5 -8.5t22 -20.5t17.5 -25.5t7 -22.5z" />
    <glyph glyph-name="cent" unicode="&#xa2;" horiz-adv-x="292" 
d="M268 515q-24 26 -59 26q-32 0 -51.5 -36.5t-19.5 -96.5t20 -95.5t54 -35.5q17 0 32.5 7t27.5 18l-6 -107q-20 -15 -52 -19v-79h-60v81q-59 15 -96.5 74.5t-37.5 155.5q0 98 37.5 158t96.5 74v85h60v-83q21 -2 35.5 -8.5t24.5 -14.5z" />
    <glyph glyph-name="sterling" unicode="&#xa3;" horiz-adv-x="304" 
d="M281 -8q-17 7 -42 10.5t-51 3.5t-50.5 -4t-42.5 -9l-79 46q18 39 27.5 86t9.5 112v44h-43v66h43v82q0 111 43.5 164t115.5 53q37 0 57 -15l-4 -100q-17 14 -40 14q-26 0 -42 -25t-16 -80v-93h81l-5 -66h-76v-45q0 -45 -4 -79t-11 -58q9 3 20 4t24 1q26 0 49 -3.5t41 -9.5
z" />
    <glyph glyph-name="currency" unicode="&#xa4;" horiz-adv-x="354" 
d="M235 277q0 38 -17 65t-41 27t-40.5 -27t-16.5 -65q0 -39 16.5 -66t40.5 -27t41 27t17 66zM278 76l-44 58q-13 -9 -27 -14.5t-30 -5.5q-15 0 -29.5 6t-28.5 16l-45 -59l-54 51l49 67q-16 38 -16 82q0 22 4 42t11 37l-48 69l53 50q11 -14 21 -25q8 -10 15 -19.5t8 -14.5
q29 24 60 24q33 0 58 -23l44 59l53 -51l-47 -66q17 -37 17 -82q0 -23 -5 -44.5t-13 -40.5l48 -65z" />
    <glyph glyph-name="yen" unicode="&#xa5;" horiz-adv-x="393" 
d="M301 400h48v-66h-76l-20 -54v-7h96v-67h-96v-206h-113v206h-95v67h95v3l-21 58h-74v66h45l-89 238h120l54 -141q6 -15 12.5 -34.5t11.5 -36.5h2q5 17 12 36t13 35l54 141h111z" />
    <glyph glyph-name="brokenbar" unicode="&#xa6;" horiz-adv-x="174" 
d="M43 -191v368h87v-368h-87zM43 295v368h87v-368h-87z" />
    <glyph glyph-name="section" unicode="&#xa7;" horiz-adv-x="308" 
d="M107 346l-10 -73l105 -172l11 74zM283 -39q0 -35 -10 -64.5t-29 -51t-45.5 -33.5t-59.5 -12q-35 0 -56.5 8.5t-33.5 18.5l6 110q12 -11 29 -19.5t37 -8.5q45 0 45 46q0 20 -4 34t-12 31l-114 184l20 151q-14 34 -21.5 64.5t-7.5 66.5t10 65.5t29 50.5t45.5 33t59.5 12
q35 0 56.5 -8.5t33.5 -18.5l-6 -110q-12 11 -29 19.5t-37 8.5q-45 0 -45 -46q0 -19 4 -34t12 -32l115 -186l-21 -150q14 -33 21.5 -63.5t7.5 -65.5z" />
    <glyph glyph-name="dieresis" unicode="&#xa8;" 
d="M132 544q0 -7 -5.5 -17.5t-14 -20t-17 -16t-14.5 -6.5t-15 6.5t-17.5 16t-14 20t-5.5 17.5t5.5 17.5t14 20t17.5 16.5t15 7t14.5 -7t17 -16.5t14 -20t5.5 -17.5zM272 544q0 -7 -5.5 -17.5t-14 -20t-17 -16t-14.5 -6.5t-15 6.5t-17.5 16t-14 20t-5.5 17.5t5.5 17.5t14 20
t17.5 16.5t15 7t14.5 -7t17 -16.5t14 -20t5.5 -17.5z" />
    <glyph glyph-name="copyright" unicode="&#xa9;" horiz-adv-x="420" 
d="M273 307q-7 7 -16 11.5t-20 4.5q-18 0 -27.5 -20.5t-9.5 -55.5t9.5 -54.5t28.5 -19.5q21 0 36 15l-4 -68q-8 -5 -19 -9.5t-27 -4.5q-42 0 -70.5 37t-28.5 105q0 66 28 104t70 38q18 0 31.5 -5t21.5 -13zM345 249q0 47 -10 85.5t-28 66t-42.5 42.5t-54.5 15t-55 -15
t-42.5 -42.5t-27.5 -66t-10 -85.5q0 -46 10 -84.5t27.5 -66t42.5 -42.5t55 -15t54.5 15t42.5 42.5t28 66t10 84.5zM399 249q0 -57 -14 -104.5t-39.5 -81.5t-60 -53t-75.5 -19t-76 19t-60.5 53t-39.5 81.5t-14 104.5q0 58 14 106t39.5 82t60.5 53t76 19t75.5 -19t60 -53
t39.5 -82t14 -106z" />
    <glyph glyph-name="ordfeminine" unicode="&#xaa;" horiz-adv-x="283" 
d="M150 436l-20 -2q-28 -3 -28 -53q0 -15 6.5 -25.5t15.5 -10.5q11 0 18.5 10.5t7.5 29.5v51zM194 149q0 -7 -5.5 -17.5t-13.5 -20.5t-17 -16.5t-15 -6.5t-15 6.5t-17.5 16.5t-14 20.5t-5.5 17.5q0 8 5.5 18t14 20t17.5 16.5t15 6.5t15 -6.5t17 -16.5t13.5 -20t5.5 -18z
M238 271q-19 2 -34 11.5t-23 24.5q-11 -17 -29.5 -26t-38.5 -9q-38 0 -66.5 27t-28.5 84q0 53 25.5 85t73.5 37l32 3v16q0 44 -41 44q-20 0 -37 -9t-27 -19l-4 81q12 11 33.5 19t45.5 8q57 0 90 -35t33 -103v-120q0 -41 32 -49z" />
    <glyph glyph-name="guillemotleft" unicode="&#xab;" horiz-adv-x="349" 
d="M125 106q-23 48 -55 93.5t-72 77.5q40 32 72 77.5t55 93.5l51 -56q-11 -33 -29.5 -64.5t-35.5 -50.5q17 -19 35.5 -50.5t29.5 -64.5zM281 106q-22 48 -54.5 93.5t-72.5 77.5q40 32 72.5 77.5t54.5 93.5l51 -56q-11 -33 -29.5 -64.5t-35.5 -50.5q17 -19 35.5 -50.5
t29.5 -64.5z" />
    <glyph glyph-name="logicalnot" unicode="&#xac;" horiz-adv-x="365" 
d="M242 139v92h-218v90h310v-182h-92z" />
    <glyph glyph-name="registered" unicode="&#xae;" horiz-adv-x="324" 
d="M180 505q0 16 -5.5 25.5t-13.5 9.5h-8v-70h8q8 0 13.5 9.5t5.5 25.5zM200 338l-40 95h-7v-92h-38v235h48q23 0 40.5 -19.5t17.5 -51.5q0 -19 -7.5 -34.5t-17.5 -23.5l35 -83zM266 457q0 34 -8 62.5t-21.5 49t-32.5 32t-42 11.5q-45 0 -74 -43t-29 -112t29 -112t74 -43
q23 0 42 11.5t32.5 32t21.5 49t8 62.5zM304 457q0 -41 -11 -76t-30 -60t-45 -39t-56 -14t-56 14t-45 39t-30 60t-11 76t11 76t30 60.5t45 39.5t56 14t56 -14t45 -39.5t30 -60.5t11 -76z" />
    <glyph glyph-name="macron" unicode="&#xaf;" 
d="M72 498v66h158v-66h-158z" />
    <glyph glyph-name="macron" unicode="&#x2c9;" 
d="M72 498v66h158v-66h-158z" />
    <glyph glyph-name="degree" unicode="&#xb0;" horiz-adv-x="219" 
d="M143 544q0 23 -9.5 39t-23.5 16t-23.5 -16t-9.5 -39q0 -25 9.5 -40.5t23.5 -15.5t23.5 15.5t9.5 40.5zM195 544q0 -43 -24 -73.5t-61 -30.5t-61 30.5t-24 73.5q0 21 6.5 40t17.5 33t27 22.5t34 8.5t34 -8.5t27 -22.5t17.5 -33t6.5 -40z" />
    <glyph glyph-name="plusminus" unicode="&#xb1;" horiz-adv-x="657" 
d="M602 -13q-22 4 -42 15t-35 29.5t-24 43.5t-9 57v432q-5 3 -13 4t-17 1q-37 0 -55 -27t-18 -70v-19h53l-5 -99h-48v-354h-116v354h-103v-354h-115v354h-45v99h45v18q0 91 37.5 140t108.5 49q23 0 37.5 -4t25.5 -12l-5 -100q-13 15 -40 15q-22 0 -35.5 -21t-13.5 -57v-28
h103v11q0 94 50.5 150t146.5 56q45 0 80.5 -13.5t56.5 -31.5v-485q0 -54 40 -68z" />
    <glyph glyph-name="twosuperior" unicode="&#xb2;" horiz-adv-x="226" 
d="M12 242v21q21 30 39 65t31.5 68.5t21 63t7.5 49.5q0 36 -11 52.5t-30 16.5q-25 0 -45 -23l-5 67q11 10 26.5 16.5t35.5 6.5q46 0 76.5 -31t30.5 -98q0 -22 -5 -48.5t-14 -54t-21 -55t-26 -51.5h79v-65h-190z" />
    <glyph glyph-name="threesuperior" unicode="&#xb3;" horiz-adv-x="206" 
d="M185 366q0 -66 -30.5 -98.5t-78.5 -32.5q-16 0 -30 5t-22 12l-4 70q18 -21 45 -21q16 0 28 14.5t12 48.5q0 25 -10.5 42.5t-24.5 17.5q-4 0 -7.5 -0.5t-8.5 -3.5l-4 63q14 7 25.5 21t11.5 33q0 17 -6.5 30t-20.5 13q-16 0 -31 -15l-4 65q9 6 21 10.5t31 4.5
q39 0 62.5 -27.5t23.5 -70.5q0 -26 -9 -46t-23 -30q20 -8 37 -34.5t17 -70.5z" />
    <glyph glyph-name="acute" unicode="&#xb4;" 
d="M236 567q-32 -35 -63 -52t-67 -31l-44 50q39 15 82 46t74 76z" />
    <glyph glyph-name="mu" unicode="&#xb5;" horiz-adv-x="446" 
d="M212 28q-20 9 -31 22.5t-17 27.5l-103 285v-335h151zM385 386h-301l195 -205q-35 -14 -54 -38t-19 -46q0 -27 11.5 -42.5t30.5 -26.5h137v358zM33 0v453h380v-453h-380z" />
    <glyph glyph-name="mu" unicode="&#x3bc;" horiz-adv-x="446" 
d="M212 28q-20 9 -31 22.5t-17 27.5l-103 285v-335h151zM385 386h-301l195 -205q-35 -14 -54 -38t-19 -46q0 -27 11.5 -42.5t30.5 -26.5h137v358zM33 0v453h380v-453h-380z" />
    <glyph glyph-name="paragraph" unicode="&#xb6;" horiz-adv-x="355" 
d="M291 538v-532q0 -84 -35.5 -134.5t-91.5 -71.5l-47 84q31 13 44.5 43.5t13.5 88.5v255h-8q-28 0 -54.5 12.5t-47 36.5t-33 58t-12.5 77t12.5 77t33 58t47 37t54.5 13h170v-102h-46z" />
    <glyph glyph-name="periodcentered" unicode="&#xb7;" horiz-adv-x="174" 
d="M152 271q0 -10 -7 -23t-17 -25t-21 -20.5t-19 -8.5t-19.5 8.5t-22 20.5t-17.5 25t-7 23q0 9 7 22t17.5 25t22 20.5t19.5 8.5t19 -8.5t21 -20.5t17 -25t7 -22z" />
    <glyph glyph-name="periodcentered" unicode="&#x2219;" horiz-adv-x="174" 
d="M152 271q0 -10 -7 -23t-17 -25t-21 -20.5t-19 -8.5t-19.5 8.5t-22 20.5t-17.5 25t-7 23q0 9 7 22t17.5 25t22 20.5t19.5 8.5t19 -8.5t21 -20.5t17 -25t7 -22z" />
    <glyph glyph-name="cedilla" unicode="&#xb8;" 
d="M211 -111q0 -45 -24 -67.5t-51 -22.5t-43 14l4 52q8 -9 15.5 -12t16.5 -3q11 0 18.5 9.5t7.5 28.5q0 39 -26 39q-7 0 -19 -3l7 76h38l-2 -24q22 -3 40 -25t18 -62z" />
    <glyph glyph-name="onesuperior" unicode="&#xb9;" horiz-adv-x="169" 
d="M55 242v328l-41 -5l5 68l111 12v-403h-75z" />
    <glyph glyph-name="ordmasculine" unicode="&#xba;" horiz-adv-x="311" 
d="M191 461q0 45 -10 73.5t-26 28.5q-15 0 -25.5 -28.5t-10.5 -73.5q0 -48 10.5 -76t25.5 -28q16 0 26 28t10 76zM209 149q0 -7 -5.5 -17.5t-14 -20.5t-17 -16.5t-14.5 -6.5t-15 6.5t-17 16.5t-13.5 20.5t-5.5 17.5q0 8 5.5 18t13.5 20t17 16.5t15 6.5t14.5 -6.5t17 -16.5
t14 -20t5.5 -18zM288 461q0 -42 -10 -77t-27.5 -60t-42 -38.5t-53.5 -13.5t-53.5 13.5t-42 38.5t-27.5 60t-10 77q0 41 10 75.5t27.5 59.5t42 38.5t53.5 13.5t53.5 -13.5t42 -38.5t27.5 -59.5t10 -75.5z" />
    <glyph glyph-name="guillemotright" unicode="&#xbb;" horiz-adv-x="349" 
d="M196 277q-40 -32 -72.5 -77.5t-55.5 -93.5l-50 56q11 33 29 64.5t36 50.5q-18 19 -36 50.5t-29 64.5l50 56q23 -48 55.5 -93.5t72.5 -77.5zM351 277q-38 -32 -71 -77.5t-56 -93.5l-51 56q12 33 30 64.5t36 50.5q-18 19 -36 50.5t-30 64.5l51 56q23 -48 56 -93.5t71 -77.5
z" />
    <glyph glyph-name="onequarter" unicode="&#xbc;" horiz-adv-x="509" 
d="M386 291q-4 -12 -6.5 -22.5t-7.5 -21.5l-38 -81h51v83q0 20 3 41zM55 242v328l-41 -5l5 68l111 12v-403h-75zM119 -10l-53 27l294 631l54 -26zM457 104v-104h-72v104h-108l-9 64l112 229h77v-231h27v-62h-27z" />
    <glyph glyph-name="onehalf" unicode="&#xbd;" horiz-adv-x="541" 
d="M55 242v328l-41 -5l5 68l111 12v-403h-75zM119 -10l-53 27l294 631l54 -26zM329 0v21q21 30 39 65t31.5 68.5t21 63t7.5 50.5q0 68 -40 68q-14 0 -24.5 -6.5t-21.5 -17.5l-4 68q11 10 26.5 16.5t35.5 6.5q47 0 77 -31t30 -98q0 -22 -5 -48.5t-14 -54.5t-21 -55.5
t-26 -50.5h79v-65h-191z" />
    <glyph glyph-name="threequarters" unicode="&#xbe;" horiz-adv-x="528" 
d="M409 291q-4 -12 -7 -22.5t-7 -21.5l-38 -81h51v83q0 20 3 41zM185 366q0 -66 -30.5 -98.5t-78.5 -32.5q-16 0 -30 5t-22 12l-4 70q18 -21 45 -21q16 0 28 14.5t12 48.5q0 25 -10.5 42.5t-24.5 17.5q-4 0 -7.5 -0.5t-8.5 -3.5l-4 63q14 7 25.5 21t11.5 33q0 17 -6.5 30
t-20.5 13q-16 0 -31 -15l-4 65q9 6 21 10.5t31 4.5q39 0 62.5 -27.5t23.5 -70.5q0 -26 -9 -46t-23 -30q20 -8 37 -34.5t17 -70.5zM142 -10l-54 27l295 631l54 -26zM479 104v-104h-71v104h-109l-8 64l112 229h76v-231h28v-62h-28z" />
    <glyph glyph-name="questiondown" unicode="&#xbf;" horiz-adv-x="288" 
d="M270 10q-12 -12 -34.5 -23t-56.5 -11q-68 0 -110.5 44t-42.5 121q0 25 4 46.5t11.5 42t18.5 41.5t26 45q17 27 23.5 53.5t6.5 51.5q0 21 -3 39l99 -23q2 -11 3.5 -23t1.5 -25q0 -38 -9.5 -70t-31.5 -70q-17 -28 -25 -49.5t-8 -49.5q0 -32 14 -51t37 -19q22 0 40.5 11
t29.5 27zM224 570q0 -9 -7 -22t-17.5 -25t-22 -20.5t-20.5 -8.5q-8 0 -19.5 8.5t-22 20.5t-17.5 25t-7 22t7 22.5t17.5 25.5t22 20.5t19.5 8.5q9 0 20.5 -8.5t22 -20.5t17.5 -25.5t7 -22.5z" />
    <glyph glyph-name="Agrave" unicode="&#xc0;" horiz-adv-x="399" 
d="M207 362q-2 14 -5 29t-5 32h-2q-2 -17 -5 -32t-5 -29l-23 -123h68zM276 0l-28 147h-104l-28 -147h-111l146 640h98l146 -640h-119zM221 684q-36 14 -67 31t-62 52l19 89q29 -45 72 -76t83 -46z" />
    <glyph glyph-name="Aacute" unicode="&#xc1;" horiz-adv-x="399" 
d="M207 362q-2 14 -5 29t-5 32h-2q-2 -17 -5 -32t-5 -29l-23 -123h68zM276 0l-28 147h-104l-28 -147h-111l146 640h98l146 -640h-119zM307 767q-32 -35 -63 -52t-67 -31l-44 50q39 15 82 46t74 76z" />
    <glyph glyph-name="Acircumflex" unicode="&#xc2;" horiz-adv-x="399" 
d="M207 362q-2 14 -5 29t-5 32h-2q-2 -17 -5 -32t-5 -29l-23 -123h68zM276 0l-28 147h-104l-28 -147h-111l146 640h98l146 -640h-119zM263 684q-18 11 -34 25t-30 38q-15 -23 -31 -37.5t-34 -25.5l-42 47q29 18 57.5 52t49.5 77q20 -43 48 -77t57 -52z" />
    <glyph glyph-name="Atilde" unicode="&#xc3;" horiz-adv-x="399" 
d="M207 362q-2 14 -5 29t-5 32h-2q-2 -17 -5 -32t-5 -29l-23 -123h68zM276 0l-28 147h-104l-28 -147h-111l146 640h98l146 -640h-119zM302 738q-49 -47 -112 -53l-9 62q-23 -4 -47 -18.5t-44 -33.5l16 82q26 23 54 36.5t60 16.5l7 -62q23 4 47 18.5t44 34.5z" />
    <glyph glyph-name="Adieresis" unicode="&#xc4;" horiz-adv-x="399" 
d="M207 362q-2 14 -5 29t-5 32h-2q-2 -17 -5 -32t-5 -29l-23 -123h68zM276 0l-28 147h-104l-28 -147h-111l146 640h98l146 -640h-119zM184 744q0 -7 -5.5 -17.5t-14 -20t-17 -16t-14.5 -6.5t-15 6.5t-17.5 16t-14 20t-5.5 17.5t5.5 17.5t14 20t17.5 16.5t15 7t14.5 -7
t17 -16.5t14 -20t5.5 -17.5zM324 744q0 -7 -5.5 -17.5t-14 -20t-17 -16t-14.5 -6.5t-15 6.5t-17.5 16t-14 20t-5.5 17.5t5.5 17.5t14 20t17.5 16.5t15 7t14.5 -7t17 -16.5t14 -20t5.5 -17.5z" />
    <glyph glyph-name="Aring" unicode="&#xc5;" horiz-adv-x="399" 
d="M207 362q-2 14 -5 29t-5 32h-2q-2 -17 -5 -32t-5 -29l-23 -123h68zM276 0l-28 147h-104l-28 -147h-111l146 640h98l146 -640h-119zM235 777q0 25 -10.5 41t-25.5 16t-25 -16t-10 -41t10 -41t25 -16t25.5 16t10.5 41zM289 777q0 -45 -25.5 -76.5t-64.5 -31.5
q-19 0 -35.5 8.5t-28.5 23t-18.5 34.5t-6.5 42t6.5 41.5t18.5 34.5t28.5 23.5t35.5 8.5q20 0 36.5 -8.5t28.5 -23.5t18.5 -34.5t6.5 -41.5z" />
    <glyph glyph-name="AE" unicode="&#xc6;" horiz-adv-x="568" 
d="M297 520q-5 -23 -12 -49t-14 -46l-61 -184h85v186q0 20 1 45t3 48h-2zM295 0v147h-120l-51 -147h-122l242 638h299v-103h-131v-163h107v-104h-107v-165h146v-103h-263z" />
    <glyph glyph-name="Ccedilla" unicode="&#xc7;" horiz-adv-x="354" 
d="M330 505q-10 11 -28.5 21.5t-47.5 10.5q-25 0 -44.5 -16.5t-33 -45.5t-20.5 -69t-7 -87t7 -86.5t20.5 -68.5t33.5 -45.5t47 -16.5t47 9.5t31 24.5l-7 -118q-14 -11 -37.5 -18.5t-52.5 -8.5l-1 -15q23 -3 41 -25t18 -62q0 -45 -24 -67.5t-51 -22.5t-44 14l4 52
q8 -9 16 -12t16 -3q26 0 26 38q0 39 -26 39q-5 0 -8.5 -0.5t-9.5 -2.5l7 70q-79 16 -127.5 100t-48.5 225q0 78 15.5 139t43.5 103t66 64t84 22q35 0 61 -10t40 -21z" />
    <glyph glyph-name="Egrave" unicode="&#xc8;" horiz-adv-x="313" 
d="M37 0v638h251v-103h-131v-163h107v-104h-107v-165h146v-103h-266zM181 684q-36 14 -67 31t-62 52l19 89q29 -45 72 -76t83 -46z" />
    <glyph glyph-name="Eacute" unicode="&#xc9;" horiz-adv-x="313" 
d="M37 0v638h251v-103h-131v-163h107v-104h-107v-165h146v-103h-266zM275 767q-32 -35 -63 -52t-67 -31l-44 50q39 15 82 46t74 76z" />
    <glyph glyph-name="Ecircumflex" unicode="&#xca;" horiz-adv-x="313" 
d="M37 0v638h251v-103h-131v-163h107v-104h-107v-165h146v-103h-266zM230 684q-18 11 -34 25t-30 38q-15 -23 -31 -37.5t-34 -25.5l-42 47q29 18 57.5 52t49.5 77q20 -43 48 -77t57 -52z" />
    <glyph glyph-name="Edieresis" unicode="&#xcb;" horiz-adv-x="313" 
d="M37 0v638h251v-103h-131v-163h107v-104h-107v-165h146v-103h-266zM147 744q0 -7 -5.5 -17.5t-14 -20t-17 -16t-14.5 -6.5t-15 6.5t-17.5 16t-14 20t-5.5 17.5t5.5 17.5t14 20t17.5 16.5t15 7t14.5 -7t17 -16.5t14 -20t5.5 -17.5zM287 744q0 -7 -5.5 -17.5t-14 -20
t-17 -16t-14.5 -6.5t-15 6.5t-17.5 16t-14 20t-5.5 17.5t5.5 17.5t14 20t17.5 16.5t15 7t14.5 -7t17 -16.5t14 -20t5.5 -17.5z" />
    <glyph glyph-name="Igrave" unicode="&#xcc;" horiz-adv-x="203" 
d="M41 0v638h121v-638h-121zM130 684q-36 14 -67 31t-62 52l19 89q29 -45 72 -76t83 -46z" />
    <glyph glyph-name="Iacute" unicode="&#xcd;" horiz-adv-x="203" 
d="M41 0v638h121v-638h-121zM205 767q-32 -35 -63 -52t-67 -31l-44 50q39 15 82 46t74 76z" />
    <glyph glyph-name="Icircumflex" unicode="&#xce;" horiz-adv-x="203" 
d="M41 0v638h121v-638h-121zM166 684q-18 11 -34 25t-30 38q-15 -23 -31 -37.5t-34 -25.5l-42 47q29 18 57.5 52t49.5 77q20 -43 48 -77t57 -52z" />
    <glyph glyph-name="Idieresis" unicode="&#xcf;" horiz-adv-x="203" 
d="M41 0v638h121v-638h-121zM83 744q0 -7 -5.5 -17.5t-14 -20t-17 -16t-14.5 -6.5t-15 6.5t-17.5 16t-14 20t-5.5 17.5t5.5 17.5t14 20t17.5 16.5t15 7t14.5 -7t17 -16.5t14 -20t5.5 -17.5zM223 744q0 -7 -5.5 -17.5t-14 -20t-17 -16t-14.5 -6.5t-15 6.5t-17.5 16t-14 20
t-5.5 17.5t5.5 17.5t14 20t17.5 16.5t15 7t14.5 -7t17 -16.5t14 -20t5.5 -17.5z" />
    <glyph glyph-name="Eth" unicode="&#xd0;" horiz-adv-x="436" 
d="M287 319q0 56 -8.5 96.5t-22.5 66.5t-32 38.5t-38 12.5h-21v-169h51l-8 -89h-43v-170h21q20 0 38 12.5t32 38.5t22.5 66.5t8.5 96.5zM411 319q0 -81 -17 -141t-46.5 -99.5t-68.5 -59t-84 -19.5h-149v275h-45v89h45v274h149q45 0 84 -19.5t68.5 -59t46.5 -99.5t17 -141z
" />
    <glyph glyph-name="Ntilde" unicode="&#xd1;" horiz-adv-x="450" 
d="M338 -2l-129 241q-14 27 -30.5 60.5t-28.5 62.5h-2q2 -32 2.5 -63.5t0.5 -57.5v-241h-114v638h91l117 -231q13 -25 28 -57.5t26 -58.5l2 1q-2 27 -2.5 58.5t-0.5 56.5v231h115v-640h-75zM324 738q-49 -47 -112 -53l-9 62q-23 -4 -47 -18.5t-44 -33.5l16 82q26 23 54 36.5
t60 16.5l7 -62q23 4 47 18.5t44 34.5z" />
    <glyph glyph-name="Ograve" unicode="&#xd2;" horiz-adv-x="471" 
d="M321 319q0 48 -7 87.5t-18.5 68t-27 44.5t-33.5 16t-33.5 -16t-27 -44.5t-18.5 -68t-7 -87.5q0 -47 7 -86.5t18.5 -68t27 -44.5t33.5 -16t33.5 16t27 44.5t18.5 68t7 86.5zM445 319q0 -74 -15 -134.5t-42.5 -103.5t-66 -66.5t-86.5 -23.5t-86.5 23.5t-66 66.5
t-42.5 103.5t-15 134.5t15 134.5t42.5 103.5t66 66.5t86.5 23.5t86.5 -23.5t66 -66.5t42.5 -103.5t15 -134.5zM251 684q-36 14 -67 31t-62 52l19 89q29 -45 72 -76t83 -46z" />
    <glyph glyph-name="Oacute" unicode="&#xd3;" horiz-adv-x="471" 
d="M321 319q0 48 -7 87.5t-18.5 68t-27 44.5t-33.5 16t-33.5 -16t-27 -44.5t-18.5 -68t-7 -87.5q0 -47 7 -86.5t18.5 -68t27 -44.5t33.5 -16t33.5 16t27 44.5t18.5 68t7 86.5zM445 319q0 -74 -15 -134.5t-42.5 -103.5t-66 -66.5t-86.5 -23.5t-86.5 23.5t-66 66.5
t-42.5 103.5t-15 134.5t15 134.5t42.5 103.5t66 66.5t86.5 23.5t86.5 -23.5t66 -66.5t42.5 -103.5t15 -134.5zM348 767q-32 -35 -63 -52t-67 -31l-44 50q39 15 82 46t74 76z" />
    <glyph glyph-name="Ocircumflex" unicode="&#xd4;" horiz-adv-x="471" 
d="M321 319q0 48 -7 87.5t-18.5 68t-27 44.5t-33.5 16t-33.5 -16t-27 -44.5t-18.5 -68t-7 -87.5q0 -47 7 -86.5t18.5 -68t27 -44.5t33.5 -16t33.5 16t27 44.5t18.5 68t7 86.5zM445 319q0 -74 -15 -134.5t-42.5 -103.5t-66 -66.5t-86.5 -23.5t-86.5 23.5t-66 66.5
t-42.5 103.5t-15 134.5t15 134.5t42.5 103.5t66 66.5t86.5 23.5t86.5 -23.5t66 -66.5t42.5 -103.5t15 -134.5zM300 684q-18 11 -34 25t-30 38q-15 -23 -31 -37.5t-34 -25.5l-42 47q29 18 57.5 52t49.5 77q20 -43 48 -77t57 -52z" />
    <glyph glyph-name="Otilde" unicode="&#xd5;" horiz-adv-x="471" 
d="M321 319q0 48 -7 87.5t-18.5 68t-27 44.5t-33.5 16t-33.5 -16t-27 -44.5t-18.5 -68t-7 -87.5q0 -47 7 -86.5t18.5 -68t27 -44.5t33.5 -16t33.5 16t27 44.5t18.5 68t7 86.5zM445 319q0 -74 -15 -134.5t-42.5 -103.5t-66 -66.5t-86.5 -23.5t-86.5 23.5t-66 66.5
t-42.5 103.5t-15 134.5t15 134.5t42.5 103.5t66 66.5t86.5 23.5t86.5 -23.5t66 -66.5t42.5 -103.5t15 -134.5zM336 738q-49 -47 -112 -53l-9 62q-23 -4 -47 -18.5t-44 -33.5l16 82q26 23 54 36.5t60 16.5l7 -62q23 4 47 18.5t44 34.5z" />
    <glyph glyph-name="Odieresis" unicode="&#xd6;" horiz-adv-x="471" 
d="M321 319q0 48 -7 87.5t-18.5 68t-27 44.5t-33.5 16t-33.5 -16t-27 -44.5t-18.5 -68t-7 -87.5q0 -47 7 -86.5t18.5 -68t27 -44.5t33.5 -16t33.5 16t27 44.5t18.5 68t7 86.5zM445 319q0 -74 -15 -134.5t-42.5 -103.5t-66 -66.5t-86.5 -23.5t-86.5 23.5t-66 66.5
t-42.5 103.5t-15 134.5t15 134.5t42.5 103.5t66 66.5t86.5 23.5t86.5 -23.5t66 -66.5t42.5 -103.5t15 -134.5zM217 744q0 -7 -5.5 -17.5t-14 -20t-17 -16t-14.5 -6.5t-15 6.5t-17.5 16t-14 20t-5.5 17.5t5.5 17.5t14 20t17.5 16.5t15 7t14.5 -7t17 -16.5t14 -20t5.5 -17.5z
M357 744q0 -7 -5.5 -17.5t-14 -20t-17 -16t-14.5 -6.5t-15 6.5t-17.5 16t-14 20t-5.5 17.5t5.5 17.5t14 20t17.5 16.5t15 7t14.5 -7t17 -16.5t14 -20t5.5 -17.5z" />
    <glyph glyph-name="multiply" unicode="&#xd7;" horiz-adv-x="305" 
d="M219 112l-66 88q0 1 -10 -13t-23 -31l-34 -44l-64 60q21 28 38 51q14 20 25.5 36t11.5 15l-74 103l63 60l67 -88l66 88l63 -60q-21 -28 -37 -51q-14 -20 -25 -35.5t-12 -15.5l75 -102z" />
    <glyph glyph-name="Oslash" unicode="&#xd8;" horiz-adv-x="471" 
d="M329 319q0 32 -3.5 60.5t-9.5 52.5l-135 -295q23 -39 54 -39q19 0 36 16.5t30 45.5t20.5 69.5t7.5 89.5zM292 496q-25 45 -57 45q-19 0 -36 -16.5t-30 -46t-20 -70t-7 -89.5q0 -67 14 -120zM445 319q0 -74 -15 -134.5t-42.5 -103.5t-66 -66.5t-86.5 -23.5q-58 0 -105 36
l-22 -48l-41 28l26 58q-32 43 -50 108t-18 146q0 74 15 134.5t42.5 103.5t66 66.5t86.5 23.5q61 0 109 -40l24 53l41 -27l-30 -64q32 -44 49 -107t17 -143z" />
    <glyph glyph-name="Ugrave" unicode="&#xd9;" horiz-adv-x="433" 
d="M396 166q0 -42 -13.5 -74.5t-37.5 -55t-57 -34t-72 -11.5t-71.5 11.5t-56.5 34t-37.5 55t-13.5 74.5v472h120v-465q0 -37 16.5 -56t44.5 -19q27 0 43.5 19t16.5 56v465h118v-472zM232 684q-36 14 -67 31t-62 52l19 89q29 -45 72 -76t83 -46z" />
    <glyph glyph-name="Uacute" unicode="&#xda;" horiz-adv-x="433" 
d="M396 166q0 -42 -13.5 -74.5t-37.5 -55t-57 -34t-72 -11.5t-71.5 11.5t-56.5 34t-37.5 55t-13.5 74.5v472h120v-465q0 -37 16.5 -56t44.5 -19q27 0 43.5 19t16.5 56v465h118v-472zM335 767q-32 -35 -63 -52t-67 -31l-44 50q39 15 82 46t74 76z" />
    <glyph glyph-name="Ucircumflex" unicode="&#xdb;" horiz-adv-x="433" 
d="M396 166q0 -42 -13.5 -74.5t-37.5 -55t-57 -34t-72 -11.5t-71.5 11.5t-56.5 34t-37.5 55t-13.5 74.5v472h120v-465q0 -37 16.5 -56t44.5 -19q27 0 43.5 19t16.5 56v465h118v-472zM281 684q-18 11 -34 25t-30 38q-15 -23 -31 -37.5t-34 -25.5l-42 47q29 18 57.5 52
t49.5 77q20 -43 48 -77t57 -52z" />
    <glyph glyph-name="Udieresis" unicode="&#xdc;" horiz-adv-x="433" 
d="M396 166q0 -42 -13.5 -74.5t-37.5 -55t-57 -34t-72 -11.5t-71.5 11.5t-56.5 34t-37.5 55t-13.5 74.5v472h120v-465q0 -37 16.5 -56t44.5 -19q27 0 43.5 19t16.5 56v465h118v-472zM200 744q0 -7 -5.5 -17.5t-14 -20t-17 -16t-14.5 -6.5t-15 6.5t-17.5 16t-14 20t-5.5 17.5
t5.5 17.5t14 20t17.5 16.5t15 7t14.5 -7t17 -16.5t14 -20t5.5 -17.5zM340 744q0 -7 -5.5 -17.5t-14 -20t-17 -16t-14.5 -6.5t-15 6.5t-17.5 16t-14 20t-5.5 17.5t5.5 17.5t14 20t17.5 16.5t15 7t14.5 -7t17 -16.5t14 -20t5.5 -17.5z" />
    <glyph glyph-name="Yacute" unicode="&#xdd;" horiz-adv-x="399" 
d="M259 280v-280h-119v277l-139 361h122l54 -141q6 -15 12.5 -34.5t11.5 -36.5h2q5 17 12 36t13 35l54 141h116zM319 767q-32 -35 -63 -52t-67 -31l-44 50q39 15 82 46t74 76z" />
    <glyph glyph-name="Thorn" unicode="&#xde;" horiz-adv-x="360" 
d="M230 380q0 42 -15.5 63.5t-32.5 21.5h-27v-171h27q17 0 32.5 22t15.5 64zM348 380q0 -41 -12 -75.5t-33 -59t-48.5 -38.5t-57.5 -14h-42v-193h-118v638h118v-74h42q30 0 57.5 -13.5t48.5 -38t33 -58t12 -74.5z" />
    <glyph glyph-name="germandbls" unicode="&#xdf;" horiz-adv-x="416" 
d="M397 130q0 -29 -8 -54.5t-24.5 -44t-41.5 -29.5t-58 -11q-31 0 -53.5 8.5t-34.5 18.5v102q11 -11 28.5 -21t43.5 -10q17 0 26 10t9 23q0 16 -8 30.5t-25 33.5q-39 42 -57 74.5t-18 68.5q0 48 20 76.5t48 40.5q4 12 4 30t-4 35t-10.5 30.5t-15.5 21.5t-19 8
q-24 0 -37.5 -31t-13.5 -81v-459h-111v461q0 46 10.5 84.5t31 66t51 43t69.5 15.5t69 -15.5t50.5 -42.5t31 -62.5t10.5 -74.5q0 -26 -3 -52.5t-8 -43.5q-28 0 -45.5 -12.5t-17.5 -29.5q0 -15 7.5 -27.5t28.5 -34.5q41 -41 58 -74t17 -71z" />
    <glyph glyph-name="agrave" unicode="&#xe0;" horiz-adv-x="341" 
d="M160 503q-31 12 -57 27t-52 44l16 75q25 -38 61 -64t70 -39zM183 198l-25 -3q-17 -2 -28 -19.5t-11 -47.5q0 -20 8.5 -33t20.5 -13q15 0 25 13.5t10 36.5v66zM291 -9q-23 1 -43 13.5t-29 32.5q-14 -22 -36 -34t-48 -12q-48 0 -82.5 34t-34.5 103t32 108.5t91 45.5l41 4
v22q0 27 -13.5 42t-39.5 15q-24 0 -45.5 -11t-32.5 -23l-6 98q14 14 41 23.5t57 9.5q69 0 110.5 -43t41.5 -128v-154q0 -28 11 -42t28 -19z" />
    <glyph glyph-name="aacute" unicode="&#xe1;" horiz-adv-x="341" 
d="M231 574q-27 -29 -53.5 -44t-57.5 -27l-37 43q33 13 69.5 39t62.5 64zM183 198l-25 -3q-17 -2 -28 -19.5t-11 -47.5q0 -20 8.5 -33t20.5 -13q15 0 25 13.5t10 36.5v66zM291 -9q-23 1 -43 13.5t-29 32.5q-14 -22 -36 -34t-48 -12q-48 0 -82.5 34t-34.5 103t32 108.5
t91 45.5l41 4v22q0 27 -13.5 42t-39.5 15q-24 0 -45.5 -11t-32.5 -23l-6 98q14 14 41 23.5t57 9.5q69 0 110.5 -43t41.5 -128v-154q0 -28 11 -42t28 -19z" />
    <glyph glyph-name="acircumflex" unicode="&#xe2;" horiz-adv-x="341" 
d="M208 503q-15 10 -28.5 22t-25.5 32q-13 -20 -26.5 -32t-28.5 -22l-36 40q24 16 48.5 45t42.5 65q17 -36 41 -65t48 -45zM183 198l-25 -3q-17 -2 -28 -19.5t-11 -47.5q0 -20 8.5 -33t20.5 -13q15 0 25 13.5t10 36.5v66zM291 -9q-23 1 -43 13.5t-29 32.5q-14 -22 -36 -34
t-48 -12q-48 0 -82.5 34t-34.5 103t32 108.5t91 45.5l41 4v22q0 27 -13.5 42t-39.5 15q-24 0 -45.5 -11t-32.5 -23l-6 98q14 14 41 23.5t57 9.5q69 0 110.5 -43t41.5 -128v-154q0 -28 11 -42t28 -19z" />
    <glyph glyph-name="atilde" unicode="&#xe3;" horiz-adv-x="341" 
d="M243 549q-40 -39 -95 -45l-8 53q-20 -3 -40 -15.5t-37 -28.5l13 69q45 41 97 45l6 -52q20 3 40 15.5t37 29.5zM183 198l-25 -3q-17 -2 -28 -19.5t-11 -47.5q0 -20 8.5 -33t20.5 -13q15 0 25 13.5t10 36.5v66zM291 -9q-23 1 -43 13.5t-29 32.5q-14 -22 -36 -34t-48 -12
q-48 0 -82.5 34t-34.5 103t32 108.5t91 45.5l41 4v22q0 27 -13.5 42t-39.5 15q-24 0 -45.5 -11t-32.5 -23l-6 98q14 14 41 23.5t57 9.5q69 0 110.5 -43t41.5 -128v-154q0 -28 11 -42t28 -19z" />
    <glyph glyph-name="adieresis" unicode="&#xe4;" horiz-adv-x="341" 
d="M139 554q0 -6 -4.5 -15t-11.5 -17t-14.5 -13.5t-12.5 -5.5q-6 0 -13.5 5.5t-14 13.5t-11.5 17t-5 15t5 15t11.5 17.5t14 14t13.5 5.5q5 0 12.5 -5.5t14.5 -14t11.5 -17.5t4.5 -15zM258 554q0 -6 -4.5 -15t-11.5 -17t-14.5 -13.5t-12.5 -5.5q-6 0 -13.5 5.5t-14 13.5
t-11.5 17t-5 15t5 15t11.5 17.5t14 14t13.5 5.5q5 0 12.5 -5.5t14.5 -14t11.5 -17.5t4.5 -15zM183 198l-25 -3q-17 -2 -28 -19.5t-11 -47.5q0 -20 8.5 -33t20.5 -13q15 0 25 13.5t10 36.5v66zM291 -9q-23 1 -43 13.5t-29 32.5q-14 -22 -36 -34t-48 -12q-48 0 -82.5 34
t-34.5 103t32 108.5t91 45.5l41 4v22q0 27 -13.5 42t-39.5 15q-24 0 -45.5 -11t-32.5 -23l-6 98q14 14 41 23.5t57 9.5q69 0 110.5 -43t41.5 -128v-154q0 -28 11 -42t28 -19z" />
    <glyph glyph-name="aring" unicode="&#xe5;" horiz-adv-x="341" 
d="M181 582q0 21 -8.5 35t-21.5 14t-21.5 -14t-8.5 -35t8.5 -34.5t21.5 -13.5t21.5 13.5t8.5 34.5zM227 582q0 -38 -21.5 -64.5t-54.5 -26.5t-54.5 26.5t-21.5 64.5t21.5 65t54.5 27t54.5 -27t21.5 -65zM183 198l-25 -3q-17 -2 -28 -19.5t-11 -47.5q0 -20 8.5 -33t20.5 -13
q15 0 25 13.5t10 36.5v66zM291 -9q-23 1 -43 13.5t-29 32.5q-14 -22 -36 -34t-48 -12q-48 0 -82.5 34t-34.5 103t32 108.5t91 45.5l41 4v22q0 27 -13.5 42t-39.5 15q-24 0 -45.5 -11t-32.5 -23l-6 98q14 14 41 23.5t57 9.5q69 0 110.5 -43t41.5 -128v-154q0 -28 11 -42
t28 -19z" />
    <glyph glyph-name="ae" unicode="&#xe6;" horiz-adv-x="502" 
d="M183 193l-25 -2q-20 -2 -29.5 -22t-9.5 -43q0 -20 8.5 -32t20.5 -12q15 0 25 13.5t10 36.5v61zM379 295q0 31 -10 55t-26 24q-18 0 -31 -28t-16 -67h82q1 3 1 8v8zM483 288v-24.5t-2 -23.5l-47 -47h-136q2 -22 7.5 -41.5t16 -34.5t25.5 -23.5t35 -8.5q25 0 44.5 10
t33.5 24l-5 -102q-14 -11 -36.5 -18.5t-55.5 -7.5q-38 0 -70 15.5t-50 47.5q-17 -35 -45.5 -49t-57.5 -14q-51 0 -86.5 33.5t-35.5 101.5q0 63 30.5 103t89.5 48l44 5v27q0 26 -13.5 41t-39.5 15q-25 0 -46 -11t-32 -23l-6 98q14 14 41 23.5t57 9.5q32 0 59.5 -12t43.5 -37
q17 24 44 36.5t53 12.5q33 0 59 -14t44 -38t27.5 -55.5t9.5 -66.5z" />
    <glyph glyph-name="ccedilla" unicode="&#xe7;" horiz-adv-x="292" 
d="M268 333q-11 11 -25.5 18t-33.5 7q-32 0 -51.5 -36t-19.5 -97q0 -60 20 -95.5t54 -35.5q17 0 32.5 7t27.5 18l-6 -107q-12 -10 -32.5 -15.5t-43.5 -5.5l-1 -13q19 -3 35 -23t16 -57q0 -40 -21 -60.5t-45 -20.5q-14 0 -23 3.5t-16 9.5l3 47q7 -8 13.5 -11t14.5 -3
q23 0 23 35q0 36 -23 36h-7.5t-8.5 -2l6 63q-60 14 -98 73.5t-38 157.5q0 56 12.5 99.5t35 74t53 46.5t66.5 16q32 0 53.5 -8.5t33.5 -17.5z" />
    <glyph glyph-name="egrave" unicode="&#xe8;" horiz-adv-x="338" 
d="M198 503q-31 12 -57.5 27t-52.5 44l16 75q26 -38 62 -64t70 -39zM215 295q0 31 -9.5 55t-26.5 24q-18 0 -31.5 -28t-15.5 -67h82q1 3 1 8v8zM320 288q0 -9 -1 -24.5t-3 -23.5l-47 -47h-135q2 -22 8 -41.5t16.5 -34.5t25.5 -23.5t34 -8.5q25 0 45 9.5t34 24.5l-6 -102
q-13 -11 -36 -18.5t-55 -7.5q-40 0 -73 16.5t-57 47.5t-37 75t-13 99q0 53 12 95.5t33 73.5t50.5 47.5t64.5 16.5q33 0 59 -14t44 -38t27.5 -55.5t9.5 -66.5z" />
    <glyph glyph-name="eacute" unicode="&#xe9;" horiz-adv-x="338" 
d="M271 574q-26 -29 -52.5 -44t-57.5 -27l-38 43q34 13 70.5 39t62.5 64zM215 295q0 31 -9.5 55t-26.5 24q-18 0 -31.5 -28t-15.5 -67h82q1 3 1 8v8zM320 288q0 -9 -1 -24.5t-3 -23.5l-47 -47h-135q2 -22 8 -41.5t16.5 -34.5t25.5 -23.5t34 -8.5q25 0 45 9.5t34 24.5
l-6 -102q-13 -11 -36 -18.5t-55 -7.5q-40 0 -73 16.5t-57 47.5t-37 75t-13 99q0 53 12 95.5t33 73.5t50.5 47.5t64.5 16.5q33 0 59 -14t44 -38t27.5 -55.5t9.5 -66.5z" />
    <glyph glyph-name="ecircumflex" unicode="&#xea;" horiz-adv-x="338" 
d="M233 503q-15 10 -28.5 22t-25.5 32q-13 -20 -26.5 -32t-28.5 -22l-36 40q24 16 48.5 45t42.5 65q17 -36 41 -65t48 -45zM215 295q0 31 -9.5 55t-26.5 24q-18 0 -31.5 -28t-15.5 -67h82q1 3 1 8v8zM320 288q0 -9 -1 -24.5t-3 -23.5l-47 -47h-135q2 -22 8 -41.5t16.5 -34.5
t25.5 -23.5t34 -8.5q25 0 45 9.5t34 24.5l-6 -102q-13 -11 -36 -18.5t-55 -7.5q-40 0 -73 16.5t-57 47.5t-37 75t-13 99q0 53 12 95.5t33 73.5t50.5 47.5t64.5 16.5q33 0 59 -14t44 -38t27.5 -55.5t9.5 -66.5z" />
    <glyph glyph-name="edieresis" unicode="&#xeb;" horiz-adv-x="338" 
d="M162 554q0 -6 -4.5 -15t-11.5 -17t-14.5 -13.5t-12.5 -5.5t-12.5 5.5t-14.5 13.5t-12 17t-5 15t5 15t12 17.5t14.5 14t12.5 5.5t12.5 -5.5t14.5 -14t11.5 -17.5t4.5 -15zM281 554q0 -6 -4.5 -15t-11.5 -17t-14.5 -13.5t-12.5 -5.5t-12.5 5.5t-14.5 13.5t-12 17t-5 15
t5 15t12 17.5t14.5 14t12.5 5.5t12.5 -5.5t14.5 -14t11.5 -17.5t4.5 -15zM215 295q0 31 -9.5 55t-26.5 24q-18 0 -31.5 -28t-15.5 -67h82q1 3 1 8v8zM320 288q0 -9 -1 -24.5t-3 -23.5l-47 -47h-135q2 -22 8 -41.5t16.5 -34.5t25.5 -23.5t34 -8.5q25 0 45 9.5t34 24.5
l-6 -102q-13 -11 -36 -18.5t-55 -7.5q-40 0 -73 16.5t-57 47.5t-37 75t-13 99q0 53 12 95.5t33 73.5t50.5 47.5t64.5 16.5q33 0 59 -14t44 -38t27.5 -55.5t9.5 -66.5z" />
    <glyph glyph-name="igrave" unicode="&#xec;" horiz-adv-x="193" 
d="M107 503q-31 12 -57 27t-52 44l16 75q25 -38 61 -64t70 -39zM38 0v453h117v-453h-117z" />
    <glyph glyph-name="iacute" unicode="&#xed;" horiz-adv-x="193" 
d="M194 574q-27 -29 -53.5 -44t-56.5 -27l-38 43q33 13 70 39t63 64zM38 0v453h117v-453h-117z" />
    <glyph glyph-name="icircumflex" unicode="&#xee;" horiz-adv-x="193" 
d="M150 502q-15 10 -28.5 21.5t-25.5 32.5q-13 -20 -26.5 -32t-28.5 -22l-36 40q24 15 48.5 44t42.5 66q17 -37 41 -66t48 -44zM38 0v453h117v-453h-117z" />
    <glyph glyph-name="idieresis" unicode="&#xef;" horiz-adv-x="193" 
d="M79 554q0 -6 -4.5 -15t-11.5 -17t-14.5 -13.5t-12.5 -5.5t-12.5 5.5t-14.5 13.5t-12 17t-5 15t5 15t12 17.5t14.5 14t12.5 5.5t12.5 -5.5t14.5 -14t11.5 -17.5t4.5 -15zM198 554q0 -6 -4.5 -15t-11.5 -17t-14.5 -13.5t-12.5 -5.5t-12.5 5.5t-14.5 13.5t-12 17t-5 15t5 15
t12 17.5t14.5 14t12.5 5.5t12.5 -5.5t14.5 -14t11.5 -17.5t4.5 -15zM38 0v453h117v-453h-117z" />
    <glyph glyph-name="eth" unicode="&#xf0;" horiz-adv-x="368" 
d="M227 211q0 26 -6 58t-13 63q-11 -3 -21 -8.5t-19 -14.5q-15 -14 -24 -41t-9 -64q0 -50 13 -78.5t32 -28.5q20 0 33.5 29.5t13.5 84.5zM343 212q0 -104 -45 -162.5t-118 -58.5q-36 0 -65.5 16t-50.5 44t-32.5 67t-11.5 84q0 72 24.5 121t57.5 74q13 10 34 20.5t43 16.5
l-21 69l-55 -17l-25 84l55 17l-23 76h118l13 -42l46 14l25 -85l-45 -14l60 -197q8 -31 12 -66t4 -61z" />
    <glyph glyph-name="ntilde" unicode="&#xf1;" horiz-adv-x="368" 
d="M267 549q-41 -39 -95 -45l-8 53q-20 -3 -40 -15.5t-37 -28.5l14 69q22 20 45.5 31.5t51.5 13.5l6 -52q20 3 40 15.5t37 29.5zM221 0v301q0 26 -9.5 41.5t-26.5 15.5t-28 -16t-11 -44v-298h-115v453h101l3 -39q10 19 30.5 33t54.5 14q56 0 86.5 -38t30.5 -101v-322h-116z
" />
    <glyph glyph-name="ograve" unicode="&#xf2;" horiz-adv-x="372" 
d="M204 503q-31 12 -57 27t-52 44l16 75q25 -38 61 -64t71 -39zM235 227q0 59 -14 96t-34 37q-21 0 -36 -37t-15 -96q0 -60 15 -97t36 -37q20 0 34 37t14 97zM352 227q0 -52 -11.5 -95.5t-33 -75t-52.5 -48.5t-69 -17q-39 0 -69.5 17t-52 48.5t-33 75t-11.5 95.5t11.5 95.5
t33 74.5t52 48t69.5 17q38 0 69 -17t52.5 -48t33 -74.5t11.5 -95.5z" />
    <glyph glyph-name="oacute" unicode="&#xf3;" horiz-adv-x="372" 
d="M280 574q-26 -29 -52.5 -44t-57.5 -27l-38 43q34 13 70.5 39t62.5 64zM235 227q0 59 -14 96t-34 37q-21 0 -36 -37t-15 -96q0 -60 15 -97t36 -37q20 0 34 37t14 97zM352 227q0 -52 -11.5 -95.5t-33 -75t-52.5 -48.5t-69 -17q-39 0 -69.5 17t-52 48.5t-33 75t-11.5 95.5
t11.5 95.5t33 74.5t52 48t69.5 17q38 0 69 -17t52.5 -48t33 -74.5t11.5 -95.5z" />
    <glyph glyph-name="ocircumflex" unicode="&#xf4;" horiz-adv-x="372" 
d="M241 503q-16 10 -29 22t-26 32q-13 -20 -26 -32t-29 -22l-36 40q25 16 49.5 45t41.5 65q17 -36 41 -65t49 -45zM235 227q0 59 -14 96t-34 37q-21 0 -36 -37t-15 -96q0 -60 15 -97t36 -37q20 0 34 37t14 97zM352 227q0 -52 -11.5 -95.5t-33 -75t-52.5 -48.5t-69 -17
q-39 0 -69.5 17t-52 48.5t-33 75t-11.5 95.5t11.5 95.5t33 74.5t52 48t69.5 17q38 0 69 -17t52.5 -48t33 -74.5t11.5 -95.5z" />
    <glyph glyph-name="otilde" unicode="&#xf5;" horiz-adv-x="372" 
d="M270 549q-41 -39 -95 -45l-7 53q-20 -3 -40.5 -15.5t-37.5 -28.5l14 69q22 20 45.5 31.5t51.5 13.5l6 -52q20 3 40 15.5t37 29.5zM235 227q0 59 -14 96t-34 37q-21 0 -36 -37t-15 -96q0 -60 15 -97t36 -37q20 0 34 37t14 97zM352 227q0 -52 -11.5 -95.5t-33 -75
t-52.5 -48.5t-69 -17q-39 0 -69.5 17t-52 48.5t-33 75t-11.5 95.5t11.5 95.5t33 74.5t52 48t69.5 17q38 0 69 -17t52.5 -48t33 -74.5t11.5 -95.5z" />
    <glyph glyph-name="odieresis" unicode="&#xf6;" horiz-adv-x="372" 
d="M171 554q0 -6 -5 -15t-11.5 -17t-14 -13.5t-12.5 -5.5q-6 0 -13.5 5.5t-14.5 13.5t-12 17t-5 15t5 15t12 17.5t14.5 14t13.5 5.5q5 0 12.5 -5.5t14 -14t11.5 -17.5t5 -15zM290 554q0 -6 -5 -15t-11.5 -17t-14 -13.5t-12.5 -5.5q-6 0 -13.5 5.5t-14.5 13.5t-12 17t-5 15
t5 15t12 17.5t14.5 14t13.5 5.5q5 0 12.5 -5.5t14 -14t11.5 -17.5t5 -15zM235 227q0 59 -14 96t-34 37q-21 0 -36 -37t-15 -96q0 -60 15 -97t36 -37q20 0 34 37t14 97zM352 227q0 -52 -11.5 -95.5t-33 -75t-52.5 -48.5t-69 -17q-39 0 -69.5 17t-52 48.5t-33 75t-11.5 95.5
t11.5 95.5t33 74.5t52 48t69.5 17q38 0 69 -17t52.5 -48t33 -74.5t11.5 -95.5z" />
    <glyph glyph-name="divide" unicode="&#xf7;" horiz-adv-x="305" 
d="M205 128q0 -7 -5.5 -18t-14 -20.5t-17.5 -16.5t-15 -7q-7 0 -16 7t-17 16.5t-14 20.5t-6 18q0 8 6 19t14 20.5t17 16.5t16 7q6 0 15 -7t17.5 -16.5t14 -20.5t5.5 -19zM24 231v90h256v-90h-256zM205 424q0 -7 -5.5 -18t-14 -20.5t-17.5 -16.5t-15 -7q-7 0 -16 7t-17 16.5
t-14 20.5t-6 18q0 8 6 18.5t14 20t17 16.5t16 7q6 0 15 -7t17.5 -16.5t14 -20t5.5 -18.5z" />
    <glyph glyph-name="oslash" unicode="&#xf8;" horiz-adv-x="371" 
d="M246 227q0 17 -1.5 31.5t-3.5 28.5l-91 -177q15 -29 37 -29q24 0 41.5 40t17.5 106zM222 346q-15 26 -35 26q-25 0 -43 -40t-18 -105q0 -30 5 -58zM352 227q0 -52 -11.5 -95.5t-33 -75t-52.5 -48.5t-69 -17q-48 0 -83 26l-22 -42l-37 24l26 50q-24 32 -37 77t-13 101
q0 52 11.5 95.5t33 74.5t52 48t69.5 17q47 0 82 -26l21 42l38 -23l-26 -50q51 -65 51 -178z" />
    <glyph glyph-name="ugrave" unicode="&#xf9;" horiz-adv-x="368" 
d="M196 503q-31 12 -57.5 27t-52.5 44l16 75q25 -38 61.5 -64t70.5 -39zM235 0l-3 38q-9 -18 -29.5 -32t-54.5 -14q-57 0 -87 38t-30 101v322h115v-301q0 -26 9.5 -41.5t27.5 -15.5q17 0 27.5 16t10.5 44v298h116v-453h-102z" />
    <glyph glyph-name="uacute" unicode="&#xfa;" horiz-adv-x="368" 
d="M281 574q-26 -29 -52.5 -44t-57.5 -27l-37 43q33 13 69.5 39t62.5 64zM235 0l-3 38q-9 -18 -29.5 -32t-54.5 -14q-57 0 -87 38t-30 101v322h115v-301q0 -26 9.5 -41.5t27.5 -15.5q17 0 27.5 16t10.5 44v298h116v-453h-102z" />
    <glyph glyph-name="ucircumflex" unicode="&#xfb;" horiz-adv-x="368" 
d="M238 503q-15 10 -28.5 22t-25.5 32q-13 -20 -26.5 -32t-28.5 -22l-36 40q24 16 48.5 45t42.5 65q17 -36 41 -65t48 -45zM235 0l-3 38q-9 -18 -29.5 -32t-54.5 -14q-57 0 -87 38t-30 101v322h115v-301q0 -26 9.5 -41.5t27.5 -15.5q17 0 27.5 16t10.5 44v298h116v-453h-102
z" />
    <glyph glyph-name="udieresis" unicode="&#xfc;" horiz-adv-x="368" 
d="M168 554q0 -6 -5 -15t-11.5 -17t-14 -13.5t-12.5 -5.5q-6 0 -13.5 5.5t-14 13.5t-11.5 17t-5 15t5 15t11.5 17.5t14 14t13.5 5.5q5 0 12.5 -5.5t14 -14t11.5 -17.5t5 -15zM287 554q0 -6 -5 -15t-11.5 -17t-14 -13.5t-12.5 -5.5q-6 0 -13.5 5.5t-14 13.5t-11.5 17t-5 15
t5 15t11.5 17.5t14 14t13.5 5.5q5 0 12.5 -5.5t14 -14t11.5 -17.5t5 -15zM235 0l-3 38q-9 -18 -29.5 -32t-54.5 -14q-57 0 -87 38t-30 101v322h115v-301q0 -26 9.5 -41.5t27.5 -15.5q17 0 27.5 16t10.5 44v298h116v-453h-102z" />
    <glyph glyph-name="yacute" unicode="&#xfd;" horiz-adv-x="341" 
d="M273 574q-27 -29 -53.5 -44t-57.5 -27l-37 43q33 13 69.5 39t62.5 64zM231 39q-13 -55 -29 -94.5t-35.5 -68t-43 -47t-52.5 -30.5l-47 82q16 7 29.5 17t24.5 26t21 39t20 57l-112 433h109l39 -166q5 -19 9 -39.5t7 -43.5h2q4 22 7.5 42.5t8.5 40.5l40 166h105z" />
    <glyph glyph-name="thorn" unicode="&#xfe;" horiz-adv-x="377" 
d="M239 226q0 59 -14.5 96.5t-40.5 37.5q-11 0 -20 -5t-16 -13v-233q7 -7 15.5 -11t20.5 -4q25 0 40 36.5t15 95.5zM356 229q0 -52 -11 -96t-32 -75.5t-51 -49t-67 -17.5q-30 0 -47 12v-194h-113v854h113v-217q12 8 27.5 11.5t33.5 3.5q27 0 53 -15.5t47 -45.5t34 -73
t13 -98z" />
    <glyph glyph-name="ydieresis" unicode="&#xff;" horiz-adv-x="341" 
d="M158 551q0 -6 -5 -15t-12 -17t-14.5 -13.5t-12.5 -5.5t-12.5 5.5t-14.5 13.5t-12 17t-5 15t5 15t12 17t14.5 14t12.5 6t12.5 -6t14.5 -14t12 -17t5 -15zM277 551q0 -6 -5 -15t-12 -17t-14.5 -13.5t-12.5 -5.5t-12.5 5.5t-14.5 13.5t-12 17t-5 15t5 15t12 17t14.5 14
t12.5 6t12.5 -6t14.5 -14t12 -17t5 -15zM231 39q-13 -55 -29 -94.5t-35.5 -68t-43 -47t-52.5 -30.5l-47 82q16 7 29.5 17t24.5 26t21 39t20 57l-112 433h109l39 -166q5 -19 9 -39.5t7 -43.5h2q4 22 7.5 42.5t8.5 40.5l40 166h105z" />
    <glyph glyph-name="dotlessi" unicode="&#x131;" horiz-adv-x="193" 
d="M38 0v453h117v-453h-117z" />
    <glyph glyph-name="Lslash" unicode="&#x141;" horiz-adv-x="331" 
d="M53 0v229l-24 -16l-39 77l63 42v306h121v-226l50 33v-104l-50 -33v-203h152v-105h-273z" />
    <glyph glyph-name="lslash" unicode="&#x142;" horiz-adv-x="228" 
d="M170 307v-168q0 -54 39 -68l-48 -85q-21 4 -40 15t-34 29.5t-24 44t-9 56.5v100l-27 -18l-37 77l64 42v331h116v-254l46 31v-103z" />
    <glyph glyph-name="OE" unicode="&#x152;" horiz-adv-x="585" 
d="M311 499q-11 16 -29 25.5t-38 9.5t-37.5 -16t-30 -44.5t-20 -68t-7.5 -86.5t7.5 -86t20 -67.5t30 -44.5t37.5 -16t38 9t29 25v360zM328 0v24q-20 -17 -44 -25t-49 -8q-48 0 -86.5 23.5t-66 66.5t-42.5 103.5t-15 134.5t15 134.5t42.5 103.5t66 66.5t86.5 23.5
q25 0 49.5 -8t43.5 -25v24h232v-103h-130v-163h106v-104h-106v-165h146v-103h-248z" />
    <glyph glyph-name="oe" unicode="&#x153;" horiz-adv-x="552" 
d="M235 227q0 59 -14 96t-34 37q-21 0 -36 -37t-15 -96q0 -60 15 -97t36 -37q20 0 34 37t14 97zM429 295q0 31 -9.5 55t-26.5 24q-18 0 -31 -28t-16 -67h82q0 3 0.5 8t0.5 8zM534 288q0 -9 -0.5 -24.5t-2.5 -23.5l-49 -47h-134q1 -22 7 -41.5t16.5 -34.5t25.5 -23.5t35 -8.5
q25 0 44.5 10t33.5 24l-5 -102q-13 -11 -36 -18.5t-55 -7.5q-36 0 -69 16t-51 44q-16 -28 -46 -44t-62 -16q-39 0 -69.5 17t-52 48.5t-33 75t-11.5 95.5t11.5 95.5t33 74.5t52 48t69.5 17q31 0 60.5 -15t45.5 -41q14 26 43.5 41t58.5 15q33 0 59 -14t44 -38t27.5 -55.5
t9.5 -66.5z" />
    <glyph glyph-name="Scaron" unicode="&#x160;" horiz-adv-x="310" 
d="M291 167q0 -83 -40.5 -129.5t-118.5 -46.5q-35 0 -62 11t-44 28l-7 124q18 -23 42.5 -38t53.5 -15q27 0 40.5 15.5t13.5 41.5q0 30 -15 62t-42 66q-39 49 -62.5 97.5t-23.5 102.5q0 72 38.5 116.5t106.5 44.5q35 0 57 -8.5t33 -18.5l-6 -110q-11 11 -28.5 20t-37.5 9
q-22 0 -33.5 -12.5t-11.5 -33.5q0 -28 13 -52.5t39 -56.5q45 -54 70 -107.5t25 -109.5zM265 804q-29 -18 -57.5 -52t-48.5 -77q-20 43 -49 77.5t-58 51.5l43 48q18 -11 34 -25.5t30 -37.5q15 23 30.5 37.5t33.5 25.5z" />
    <glyph glyph-name="scaron" unicode="&#x161;" horiz-adv-x="264" 
d="M221 605q-24 -15 -48.5 -44t-41.5 -65q-17 36 -41.5 65.5t-49.5 43.5l37 41q15 -10 28.5 -22t25.5 -31q13 20 26 31.5t29 21.5zM245 130q0 -29 -8.5 -54.5t-25 -44t-41.5 -29.5t-59 -11q-30 0 -53.5 9.5t-35.5 20.5l-7 111q14 -17 36 -30t46 -13q18 0 26.5 10t8.5 23
q0 16 -9 32.5t-23 30.5q-35 36 -55 73t-20 73q0 61 34 96t91 35q26 0 45.5 -8t26.5 -15l-5 -97q-8 10 -22.5 16.5t-32.5 6.5q-12 0 -20 -7.5t-8 -19.5q0 -15 7.5 -27.5t28.5 -35.5q41 -44 58 -76t17 -69z" />
    <glyph glyph-name="Ydieresis" unicode="&#x178;" horiz-adv-x="399" 
d="M259 280v-280h-119v277l-139 361h122l54 -141q6 -15 12.5 -34.5t11.5 -36.5h2q5 17 12 36t13 35l54 141h116zM181 742q0 -7 -5.5 -17.5t-14 -20t-17 -16t-14.5 -6.5t-15 6.5t-17.5 16t-14 20t-5.5 17.5t5.5 17.5t14 20t17.5 16.5t15 7t14.5 -7t17 -16.5t14 -20t5.5 -17.5
zM321 742q0 -7 -5.5 -17.5t-14 -20t-17 -16t-14.5 -6.5t-15 6.5t-17.5 16t-14 20t-5.5 17.5t5.5 17.5t14 20t17.5 16.5t15 7t14.5 -7t17 -16.5t14 -20t5.5 -17.5z" />
    <glyph glyph-name="Zcaron" unicode="&#x17d;" horiz-adv-x="326" 
d="M11 0v30l98 335q11 38 25.5 84t26.5 83l-2 1h-131v105h277v-30l-99 -336q-11 -39 -25.5 -85t-25.5 -81l2 -1h154v-105h-300zM272 804q-29 -18 -57.5 -52t-48.5 -77q-20 43 -49 77.5t-58 51.5l43 48q18 -11 34 -25.5t30 -37.5q15 23 30.5 37.5t33.5 25.5z" />
    <glyph glyph-name="zcaron" unicode="&#x17e;" horiz-adv-x="284" 
d="M232 605q-24 -15 -48.5 -44t-41.5 -65q-17 36 -41.5 65.5t-49.5 43.5l37 41q15 -10 28.5 -22t25.5 -31q13 20 26 31.5t28 21.5zM13 0v22l67 219q8 28 17.5 57.5t17.5 53.5l-1 2h-85v99h226v-22l-66 -223q-9 -27 -18.5 -54.5t-17.5 -52.5l1 -2h109v-99h-250z" />
    <glyph glyph-name="florin" unicode="&#x192;" horiz-adv-x="312" 
d="M289 544q-11 4 -29 4q-25 0 -41 -20t-20 -55l-2 -20h71l-11 -66h-68l-45 -380q-10 -86 -48 -136.5t-89 -70.5l-60 76q36 16 56.5 47.5t27.5 93.5l43 370h-45l8 66h45l1 12q10 90 52.5 136t122.5 46q28 0 46 -5z" />
    <glyph glyph-name="circumflex" unicode="&#x2c6;" 
d="M214 484q-18 11 -34 25t-30 38q-15 -23 -31 -37.5t-34 -25.5l-42 47q29 18 57.5 52t49.5 77q20 -43 48 -77t57 -52z" />
    <glyph glyph-name="caron" unicode="&#x2c7;" 
d="M256 604q-29 -18 -57.5 -52t-48.5 -77q-20 43 -49 77.5t-58 51.5l43 48q18 -11 34 -25.5t30 -37.5q15 23 30.5 37.5t33.5 25.5z" />
    <glyph glyph-name="breve" unicode="&#x2d8;" 
d="M246 527q-1 -2 -9 -9t-20.5 -14.5t-29.5 -13.5t-37 -6t-37 6t-30 13.5t-20.5 14.5t-8.5 9l36 47q1 -1 6 -5t13.5 -8t19 -7.5t21.5 -3.5t21.5 3.5t18.5 7.5t13 8t6 5z" />
    <glyph glyph-name="dotaccent" unicode="&#x2d9;" 
d="M205 548q0 -8 -6 -19t-14.5 -21t-18 -17t-16.5 -7t-16.5 7t-18 17t-14.5 21t-6 19t6 19t14.5 21t18 17t16.5 7t16.5 -7t18 -17t14.5 -21t6 -19z" />
    <glyph glyph-name="ring" unicode="&#x2da;" 
d="M186 577q0 25 -10.5 41t-25.5 16t-25 -16t-10 -41t10 -41t25 -16t25.5 16t10.5 41zM240 577q0 -45 -25.5 -76.5t-64.5 -31.5q-19 0 -35.5 8.5t-28.5 23t-18.5 34.5t-6.5 42t6.5 41.5t18.5 34.5t28.5 23.5t35.5 8.5q20 0 36.5 -8.5t28.5 -23.5t18.5 -34.5t6.5 -41.5z" />
    <glyph glyph-name="ogonek" unicode="&#x2db;" 
d="M210 -184q-17 -17 -49 -17t-52.5 21.5t-20.5 59.5q0 21 6 40t16 34.5t21.5 27.5t22.5 18h61q-29 -23 -49.5 -51.5t-20.5 -60.5q0 -18 9 -28t23 -10q23 0 39 18z" />
    <glyph glyph-name="tilde" unicode="&#x2dc;" 
d="M248 538q-49 -47 -112 -53l-9 62q-23 -4 -47 -18.5t-44 -33.5l16 82q26 23 54 36.5t60 16.5l7 -62q23 4 47 18.5t44 34.5z" />
    <glyph glyph-name="hungarumlaut" unicode="&#x2dd;" 
d="M159 607q-17 -42 -37.5 -70t-46.5 -53l-57 17q30 31 57 73.5t42 87.5zM287 607q-17 -42 -37.5 -70t-47.5 -53l-58 17q32 31 59 73.5t41 87.5z" />
    <glyph glyph-name="Delta" unicode="&#x394;" horiz-adv-x="446" 
d="M212 28q-20 9 -31 22.5t-17 27.5l-103 285v-335h151zM385 386h-301l195 -205q-35 -14 -54 -38t-19 -46q0 -27 11.5 -42.5t30.5 -26.5h137v358zM33 0v453h380v-453h-380z" />
    <glyph glyph-name="Delta" unicode="&#x2206;" horiz-adv-x="446" 
d="M212 28q-20 9 -31 22.5t-17 27.5l-103 285v-335h151zM385 386h-301l195 -205q-35 -14 -54 -38t-19 -46q0 -27 11.5 -42.5t30.5 -26.5h137v358zM33 0v453h380v-453h-380z" />
    <glyph glyph-name="Omega" unicode="&#x3a9;" horiz-adv-x="446" 
d="M212 28q-20 9 -31 22.5t-17 27.5l-103 285v-335h151zM385 386h-301l195 -205q-35 -14 -54 -38t-19 -46q0 -27 11.5 -42.5t30.5 -26.5h137v358zM33 0v453h380v-453h-380z" />
    <glyph glyph-name="Omega" unicode="&#x2126;" horiz-adv-x="446" 
d="M212 28q-20 9 -31 22.5t-17 27.5l-103 285v-335h151zM385 386h-301l195 -205q-35 -14 -54 -38t-19 -46q0 -27 11.5 -42.5t30.5 -26.5h137v358zM33 0v453h380v-453h-380z" />
    <glyph glyph-name="pi" unicode="&#x3c0;" horiz-adv-x="446" 
d="M212 28q-20 9 -31 22.5t-17 27.5l-103 285v-335h151zM385 386h-301l195 -205q-35 -14 -54 -38t-19 -46q0 -27 11.5 -42.5t30.5 -26.5h137v358zM33 0v453h380v-453h-380z" />
    <glyph glyph-name="endash" unicode="&#x2013;" horiz-adv-x="380" 
d="M24 231v90h332v-90h-332z" />
    <glyph glyph-name="emdash" unicode="&#x2014;" horiz-adv-x="540" 
d="M24 231v90h492v-90h-492z" />
    <glyph glyph-name="quoteleft" unicode="&#x2018;" horiz-adv-x="174" 
d="M160 661q-21 -28 -37 -62.5t-21 -63.5q7 -2 15.5 -9.5t16 -17.5t12.5 -20.5t5 -18.5q0 -10 -7 -23t-17 -25t-21 -20t-19 -8q-7 0 -18 8t-21 19.5t-17.5 25t-7.5 23.5q0 20 8.5 46t22 53t31.5 53t37 46z" />
    <glyph glyph-name="quoteright" unicode="&#x2019;" horiz-adv-x="174" 
d="M152 593q0 -19 -8 -45t-22 -53t-32 -53t-38 -46l-39 6q23 27 39 62t20 64q-7 2 -15.5 9.5t-16 17t-13 20t-5.5 18.5q0 11 7 24t17.5 25t22 20t19.5 8q7 0 18 -8t21 -19.5t17.5 -25t7.5 -24.5z" />
    <glyph glyph-name="quotesinglbase" unicode="&#x201a;" horiz-adv-x="174" 
d="M152 68q0 -19 -8 -45t-22 -53t-32 -53.5t-38 -46.5l-39 6q23 28 39 62.5t20 64.5q-7 2 -15.5 9t-16 17t-13 20.5t-5.5 18.5q0 10 7 23t17.5 25t22 20t19.5 8q7 0 18 -8t21 -19.5t17.5 -24.5t7.5 -24z" />
    <glyph glyph-name="quotedblleft" unicode="&#x201c;" horiz-adv-x="335" 
d="M161 661q-22 -28 -38 -62.5t-21 -63.5q7 -2 15.5 -9.5t16 -17.5t13 -20.5t5.5 -18.5q0 -10 -7 -23t-17 -25t-21 -20t-19 -8q-7 0 -18.5 8t-21.5 19.5t-17.5 25t-7.5 23.5q0 20 8.5 46t22 53t31.5 53t37 46zM322 661q-22 -28 -38 -62.5t-21 -63.5q7 -2 15.5 -9.5t16 -17.5
t13 -20.5t5.5 -18.5q0 -10 -7 -23t-17 -25t-21 -20t-19 -8q-7 0 -18 8t-21.5 19.5t-18 25t-7.5 23.5q0 20 8 46t22 53t32 53t37 47z" />
    <glyph glyph-name="quotedblright" unicode="&#x201d;" horiz-adv-x="336" 
d="M152 593q0 -19 -8 -45t-22 -53t-32 -53t-38 -46l-39 6q23 27 39 62t20 64q-7 2 -15.5 9t-16 17t-13 20.5t-5.5 18.5q0 11 7 24t17.5 25t22 20t19.5 8q7 0 17.5 -8t21 -19.5t18 -25t7.5 -24.5zM313 593q0 -19 -8.5 -44.5t-22 -52.5t-31.5 -53.5t-37 -46.5l-40 6
q23 27 39 62t21 64q-7 2 -15.5 9.5t-16.5 17t-13.5 20t-5.5 18.5q0 11 7 24t17.5 25t21.5 20t19 8t19 -8t21 -19.5t17.5 -25t7.5 -24.5z" />
    <glyph glyph-name="quotedblbase" unicode="&#x201e;" horiz-adv-x="336" 
d="M151 68q0 -19 -8 -45t-22 -53t-32 -53.5t-38 -46.5l-39 6q22 27 38.5 62t20.5 65q-7 2 -15.5 9t-16 17t-13 20.5t-5.5 18.5q0 10 7 23t17.5 25t22 20t19.5 8q7 0 17.5 -8t21 -19.5t18 -24.5t7.5 -24zM312 68q0 -19 -8.5 -45t-22 -53t-31.5 -53.5t-37 -46.5l-40 6
q23 27 39 62t21 65q-7 2 -15.5 9t-16.5 17t-13.5 20.5t-5.5 18.5q0 10 7 23t17.5 25t21.5 20t19 8t19 -8t21 -19.5t17.5 -24.5t7.5 -24z" />
    <glyph glyph-name="dagger" unicode="&#x2020;" horiz-adv-x="278" 
d="M191 362l-15 -553h-73l-16 553l-78 -14v111l75 -14l-3 112h117l-3 -112l74 14v-111z" />
    <glyph glyph-name="daggerdbl" unicode="&#x2021;" horiz-adv-x="278" 
d="M180 -83l-4 -108h-73l-3 108l-91 -13v110l88 -13l-10 361l-78 -14v111l75 -14l-3 112h116l-2 -112l74 14v-111l-78 14l-9 -361l87 13v-110z" />
    <glyph glyph-name="bullet" unicode="&#x2022;" horiz-adv-x="269" 
d="M247 274q0 -34 -8.5 -62.5t-23.5 -49t-36 -31.5t-45 -11q-49 0 -80.5 42.5t-31.5 111.5q0 70 31.5 112.5t80.5 42.5t81 -42.5t32 -112.5z" />
    <glyph glyph-name="ellipsis" unicode="&#x2026;" horiz-adv-x="497" 
d="M152 68q0 -9 -7 -22.5t-17 -25.5t-21 -20.5t-19 -8.5t-19.5 8.5t-22 20.5t-17.5 25.5t-7 22.5t7 22t17.5 25t22 20.5t19.5 8.5t19 -8.5t21 -20.5t17 -25t7 -22zM313 68q0 -9 -7 -22.5t-17 -25.5t-21 -20.5t-20 -8.5q-8 0 -19 8.5t-21 20.5t-17 25.5t-7 22.5t7 22t17 25
t21 20.5t19 8.5q9 0 20 -8.5t21 -20.5t17 -25t7 -22zM474 68q0 -9 -7 -22.5t-17 -25.5t-21 -20.5t-19 -8.5q-9 0 -20 8.5t-21 20.5t-17 25.5t-7 22.5t7 22t17 25t21 20.5t20 8.5q8 0 19 -8.5t21 -20.5t17 -25t7 -22z" />
    <glyph glyph-name="perthousand" unicode="&#x2030;" horiz-adv-x="734" 
d="M400 135q0 35 -8 56t-19 21t-19 -21t-8 -56t8 -56.5t19 -21.5t19 21.5t8 56.5zM149 504q0 35 -7.5 56.5t-18.5 21.5t-19 -21.5t-8 -56.5q0 -34 8 -56t19 -22t18.5 22t7.5 56zM639 135q0 35 -8 56t-19 21t-19 -21t-8 -56t8 -56.5t19 -21.5t19 21.5t8 56.5zM476 135
q0 -64 -28 -104t-75 -40t-75.5 40t-28.5 104q0 63 28.5 102.5t75.5 39.5t75 -39.5t28 -102.5zM127 -12l-56 28l297 634l55 -28zM226 504q0 -63 -28 -103t-75 -40t-75 40t-28 103t28 103t75 40t75 -40t28 -103zM715 135q0 -64 -28 -104t-75 -40t-75 40t-28 104q0 63 28 102.5
t75 39.5t75 -39.5t28 -102.5z" />
    <glyph glyph-name="guilsinglleft" unicode="&#x2039;" horiz-adv-x="194" 
d="M125 106q-23 48 -55 93.5t-72 77.5q40 32 72 77.5t55 93.5l51 -56q-11 -33 -29 -64.5t-36 -50.5q18 -19 36 -50.5t29 -64.5z" />
    <glyph glyph-name="guilsinglright" unicode="&#x203a;" horiz-adv-x="193" 
d="M195 277q-39 -32 -72 -77.5t-55 -93.5l-50 56q11 33 29 64.5t36 50.5q-18 19 -36 50.5t-29 64.5l50 56q22 -48 55 -93.5t72 -77.5z" />
    <glyph glyph-name="fraction" unicode="&#x2044;" horiz-adv-x="371" 
d="M65 -12l-55 28l296 634l56 -28z" />
    <glyph glyph-name="fraction" unicode="&#x2215;" horiz-adv-x="371" 
d="M65 -12l-55 28l296 634l56 -28z" />
    <glyph glyph-name="trademark" unicode="&#x2122;" horiz-adv-x="337" 
d="M90 602v-161h-40v162h-35v35h109v-36h-34zM268 441l-4 105l-27 -105h-27l-26 104l-5 -104h-39l11 197h40l33 -120l33 120h40l10 -197h-39z" />
    <glyph glyph-name="partialdiff" unicode="&#x2202;" horiz-adv-x="446" 
d="M212 28q-20 9 -31 22.5t-17 27.5l-103 285v-335h151zM385 386h-301l195 -205q-35 -14 -54 -38t-19 -46q0 -27 11.5 -42.5t30.5 -26.5h137v358zM33 0v453h380v-453h-380z" />
    <glyph glyph-name="product" unicode="&#x220f;" horiz-adv-x="324" 
d="M187 505q0 15 -5.5 25t-13.5 10h-7v-70h7q8 0 13.5 9.5t5.5 25.5zM227 505q0 -32 -17 -52t-39 -20h-10v-92h-39v235h48q22 0 39.5 -19.5t17.5 -51.5zM266 457q0 34 -8 62.5t-21.5 49t-32.5 32t-42 11.5q-45 0 -74 -43t-29 -112t29 -112t74 -43q23 0 42 11.5t32.5 32
t21.5 49t8 62.5zM304 457q0 -41 -11 -76t-30 -60t-45 -39t-56 -14t-56 14t-45 39t-30 60t-11 76t11 76t30 60.5t45 39.5t56 14t56 -14t45 -39.5t30 -60.5t11 -76z" />
    <glyph glyph-name="summation" unicode="&#x2211;" horiz-adv-x="446" 
d="M212 28q-20 9 -31 22.5t-17 27.5l-103 285v-335h151zM385 386h-301l195 -205q-35 -14 -54 -38t-19 -46q0 -27 11.5 -42.5t30.5 -26.5h137v358zM33 0v453h380v-453h-380z" />
    <glyph glyph-name="minus" unicode="&#x2212;" horiz-adv-x="296" 
d="M27 232v88h242v-88h-242z" />
    <glyph glyph-name="radical" unicode="&#x221a;" horiz-adv-x="418" 
d="M354 564l-147 -565h-96l-58 230h-43l7 100h113l23 -100q2 -11 4 -23.5t3 -26.5h2q3 18 7 40t8.5 43.5t9.5 42.5t9 37l83 321h130v-99h-55z" />
    <glyph glyph-name="infinity" unicode="&#x221e;" horiz-adv-x="632" 
d="M478 0v354h-89v-354h-116v354h-103v-354h-115v354h-45v99h45v18q0 91 37.5 140t108.5 49q23 0 37.5 -4t25.5 -12l-5 -100q-13 15 -40 15q-22 0 -35.5 -21t-13.5 -57v-28h103v16q0 96 46 148.5t129 52.5q25 0 43.5 -5t29.5 -13l-6 -100q-8 7 -20.5 12t-29.5 5
q-41 0 -58.5 -24.5t-17.5 -68.5v-23h205v-453h-116z" />
    <glyph glyph-name="integral" unicode="&#x222b;" horiz-adv-x="446" 
d="M212 28q-20 9 -31 22.5t-17 27.5l-103 285v-335h151zM385 386h-301l195 -205q-35 -14 -54 -38t-19 -46q0 -27 11.5 -42.5t30.5 -26.5h137v358zM33 0v453h380v-453h-380z" />
    <glyph glyph-name="approxequal" unicode="&#x2248;" horiz-adv-x="305" 
d="M282 173q-14 -21 -34.5 -34t-41.5 -13q-20 0 -33 5t-23 11q-14 8 -26 15.5t-28 7.5q-18 0 -33 -11t-28 -30l-11 83q13 22 33.5 34.5t42.5 12.5q20 0 32.5 -4.5t23.5 -11.5q14 -8 25 -15t28 -7q37 0 61 41zM282 346q-14 -21 -34.5 -33.5t-41.5 -12.5q-20 0 -33 4.5
t-23 11.5q-14 8 -26 15t-28 7q-34 0 -61 -41l-11 84q13 21 33.5 33.5t42.5 12.5q20 0 32.5 -4.5t23.5 -10.5q14 -8 25 -15.5t28 -7.5q36 0 61 41z" />
    <glyph glyph-name="notequal" unicode="&#x2260;" horiz-adv-x="474" 
d="M486 555q-8 6 -17 10t-22 4q-28 0 -43.5 -23.5t-15.5 -62.5v-30h72l-5 -99h-67v-354h-115v354h-103v-354h-115v354h-45v99h45v18q0 91 37.5 140t108.5 49q23 0 37.5 -4t25.5 -12l-5 -100q-13 15 -40 15q-22 0 -35.5 -21t-13.5 -57v-28h103v18q0 99 42.5 149t114.5 50
q38 0 61 -15z" />
    <glyph glyph-name="lessequal" unicode="&#x2264;" horiz-adv-x="238" 
d="M23 0v90h185v-90h-185zM148 196l-130 167l129 166l59 -65l-76 -102l76 -101z" />
    <glyph glyph-name="greaterequal" unicode="&#x2265;" horiz-adv-x="238" 
d="M30 0v90h185v-90h-185zM91 196l-58 65l76 101l-76 102l59 65l128 -166z" />
    <glyph glyph-name="lozenge" unicode="&#x25ca;" horiz-adv-x="380" 
d="M189 373l-69 -96l69 -96l69 96zM189 64l-157 213l157 213l157 -213z" />
    <glyph glyph-name="NUL" horiz-adv-x="0" 
 />
    <glyph glyph-name="apple" horiz-adv-x="446" 
d="M212 28q-20 9 -31 22.5t-17 27.5l-103 285v-335h151zM385 386h-301l195 -205q-35 -14 -54 -38t-19 -46q0 -27 11.5 -42.5t30.5 -26.5h137v358zM33 0v453h380v-453h-380z" />
  </font>
</defs>
</svg>
